Kategorie
Ranking
Programy
Ostatnie 30
Popularne
w Lipcu
Przeglądaj
<< Poprzednia      Następna >>
1 - 60 | 61 - 120 | 121 - 165
Gatunki
Show/Hide [Pokaż/Ukryj]
Po kliknięciu ”Pokaż/Ukryj” możesz wyszukać pozycję z wybranymi gatunkami
(Pamiętaj że np. filmy mogą mieć więcej niż jeden gatunek)

Wybrane gatunki z kategorii: Filmy x264/h264

Horror (165),
==Torrent==
Kategoria: Filmy x264/h264 » Horror


Dodał: bill22
Data dodania:
2017-07-29 08:32:27
Rozmiar: 3.98 GB
Seedów: 32
Peerów: 31
Pobrano: 3 razy

Komentarze: 0

...( Info )...

tytuł polski .... Klątwa
tytuł orginalny .... The Grudge
produkcja .... Japonia, USA
gatunek .... Horror
reżyseria .... Takashi Shimizu
scenariusz .... Stephen Susco
muzyka .... Christopher Young
zdjęcia .... Lukas Ettlin, Hideo Yamamoto
na podstawie ....
dystrybucja .... Vision Film Distribution
kontynuacja .... Grudge - Klątwa 2 (2006)
premiera .... 21 stycznia 2005 (Polska) 22 października 2004 (świat)

...( Opis )...

Remake japońskiego thrillera "Klątwa Ju On" ("Ju On: The Grudge", 2003). Zwykły dom przy zwykłej ulicy w Tokio nie wyróżnia się niczym specjalnym spośród innych. Jednak to tylko pozory. Dom jest opętany. Związana jest z nim klątwa Belzebub, która zabija każdego, kto wejdzie do domu. Jej ofiary umierają i wtedy rodzi się nowa klątwa. Jak wirus przechodzi na kolejne osoby, które pojawiają się w domu. Tak tworzy się niekończący łańcuch przerażenia. Karen (Sarah Michelle Gellar) studiuje pomoc społeczną w Japonii w ramach wymiany studenck
[...]

»[Zobacz cały opis

==Torrent==
Kategoria: Filmy x264/h264 » Sci-fi


Dodał: Wilu75
Data dodania:
2017-07-21 08:33:40
Rozmiar: 3.83 GB
Seedów: 95
Peerów: 145
Pobrano: 110 razy

Komentarze: 0

==================
...::: INFO :::...
==================
Tytuł: Life
Ocena: IMDB - 6.7/10 (96428), Filmweb - 6.4/10 (31777)
Produkcja: USA
Gatunek: Horror, Sci-Fi, Thriller
Czas trwania: 103 min.
Premiera: 24.03.2017 - Polska, 22.03.2017 - Świat
Reżyseria: Daniel Espinosa
Scenariusz: Rhett Reese, Paul Wernick

==================
...::: OPIS :::...
==================
Film opowiada historię sześcioosobowej ekipy kosmonautów Międzynarodowej Stacji Kosmicznej na chwilę przed ogłoszeniem światu przełomowego dla ludzkości odkrycia: pierwszego dowodu życia na Marsie. Badania, jakie prowadzą, będą miały jednak nieoczekiwane konsekwencje. Forma życia, którą odkrywają, jest bardziej inteligenta niż ktokolwiek przypuszczał.

====================
...::: OBSADA :::...
====================
Jake Gyllenhaal .... David Jordan
Rebecca Ferguson .... Miranda North
Ryan Reynolds .... Rory Adams
Olga Dykhovichnaya .... Ekaterina Golovkina
Ariyon Bakare .... Hugh Derry
Hiroyuki Sanad
[...]

»[Zobacz cały opis

==Torrent==
Kategoria: Filmy x264/h264 » Horror


Dodał: bill22
Data dodania:
2017-07-18 12:09:08
Rozmiar: 965.93 MB
Seedów: 191
Peerów: 82
Pobrano: 4 razy

Komentarze: 0

...( Info )...

Data premiery: 5 grudnia 2008 (Polska)
Reżyseria: Catherine Hardwicke
Autor muzyki: Carter Burwell
Utwór przewodni: Decode
Operator: Elliot Davis

...( Opis )...

Isabella Swan to szukająca swego miejsca w świecie, zagubiona nastolatka, cicha marzycielka. Kiedy poznaje przystojnego, błyskotliwego i intrygującego Edwarda Cullena nie zdaje sobie sprawy, że znajomość ta wstrząśnie jej życiem i zmieni je na zawsze. Zrealizowana z rozmachem historia o zakazanym, burzliwym i niebezpiecznym romansie młodego wampira i śmiertelniczki. W obsadzie wschodzące gwiazdy Hollywood: Kristen Stewart ("Azyl":wink: i Robert Pattinson ("Harry Potter i Czara Ognia!":wink:!

...( Obsada )...

Kristen Stewart - Bella Swan
Taylor Lautner - Jacob Black
Robert Pattinson - Edward Cullen
Peter Facinelli - dr Carlisle Cullen

...( Dane Techniczne )...

Format                 : MPEG-4
ID kodeka                : isom (isom/iso2/avc1/mp41)
Rozmiar pliku  
[...]

»[Zobacz cały opis

==Torrent==
Kategoria: Filmy x264/h264 » Horror


Dodał: bill22
Data dodania:
2017-07-18 07:35:42
Rozmiar: 195.51 MB
Seedów: 110
Peerów: 19
Pobrano: 4 razy

Komentarze: 0

...( Info )...

czas trwania: 1 godz. 27 min.
gatunek: Horror
premiera: 1 czerwca 2006 (świat)
produkcja: Niemcy, RPA, USA
reżyseria: Nicholas Mastandrea
scenariusz: Robert Conte, Peter Martin Wortmann

...( Opis )...

Pięcioro przyjaciół postanawia spędzić upojne wakacje na małej opuszczonej wysepce. Wkrótce jednak okaże się, że nie są tam sami. Wyspę zamieszkuje populacja zmutowanych genetycznie dzikich psów. Zwierzęta początkowo nie budzą lęku, ale wkrótce okaże się, że bardzo różnią się od normalnych psów. To prawdziwe bestie, których mordercze skłonności i inteligencja znacznie przekraczają normę. Piątka osaczonych przyjaciół musi podjąć walkę o przetrwanie.

...( Obsada )...

Michelle Rodriguez...............Nicki
Oliver Hudson....................John
Taryn Manning....................Sara
Eric Lively......................Matt
Hill Harper......................Noah
Nick Boraine.....................Luke
Lisa-Marie Schneider.............Jenny

...( Dane Techni
[...]

»[Zobacz cały opis

==Torrent==
Kategoria: Filmy x264/h264 » Horror


Dodał: feldfebel1
Data dodania:
2017-07-03 08:31:27
Rozmiar: 7.81 GB
Seedów: 7
Peerów: 8
Pobrano: 28 razy

Komentarze: 0

...( Info )...

Produkcja: USA
Gatunek: Horror
Czas trwania: 98 min.
Premiera: 26.02.2017 - Świat
Reżyseria: Andrew Getty
Scenariusz: Andrew Getty


...( Opis )...

Upośledzony umysłowo Dennis, reagując na związek ignorującego go coraz bardziej brata i jego dziewczyny, odnajduje swego powiernika w swoim żądnym zemsty lustrzanym odbiciu.


...( Obsada )...

Frederick Koehler,
Sean Patrick Flanery,
Brianna Brown,
Dina Meyer


...( Dane Techniczne )...

Video
ID : 1
Format : AVC
Format/Info : Advanced Video Codec
Format profile : High@L4
Format settings, CABAC : Yes
Format settings, ReFrames : 4 frames
Codec ID : V_MPEG4/ISO/AVC
Duration : 1 h 38 min
Bit rate mode : Variable
Bit rate : 10.7 Mb/s
Maximum bit rate : 15.0 Mb/s
Width : 1 920 pixels
Height : 816 pixels
Display aspect ratio : 2.35:1
Frame rate mode : Constant
Frame rate : 23.976 (24000/1001) FPS
Color space : YUV
Chroma subsampling : 4:2:0
Bit depth : 8 b
[...]

»[Zobacz cały opis

==Torrent==
Kategoria: Filmy x264/h264 » Dokumentalny


Dodał: DarkAngel
Data dodania:
2017-07-02 02:56:02
Rozmiar: 694.26 MB
Seedów: 86
Peerów: 30
Pobrano: 46 razy

Komentarze: 0

...( Info )...

1945 - okrutny pokój
(1945: The Savage Peace)
FILM DOKUMENTALNY Wielka Brytania 2015 od 16 lat

Gdy dla jednych zakończenie II wojny światowej oznaczało wolność, dla milionów Niemców było początkiem nowego, krwawego rozdziału. W odwecie za krzywdy wyrządzone na zlecenie Adolfa Hitlera musieli zapłacić bardzo wysoką cenę. Dokument przedstawia wstrząsającą historię zemsty, jaka została dokonana na niemieckiej ludności cywilnej. Oprawcy w odwecie używali często metod odzwierciedlających najgorsze działania nazistów. Film zawiera unikalne zeznania naocznych świadków i samych poszkodowanych - po 70. latach wciąż pamiętają horror, jaki przeżyli. Widzowie zobaczą wzruszający i żywy obraz Europy odradzającej się z gruzów.

...( Dane Techniczne )...

Format : Matroska at 1.681 Kb/s
Length : 692 MB for 57 min. 37s 576ms

Video #0 : AVC at 1.392 Kb/s
Aspect : 720 x 576 (1.818) at 25.000 fps

Audio #0 : MPEG Audio at 256 Kb/s
Infos : 2 kanały, 48,0 KHz
Language : pl

==Torrent==
Kategoria: Filmy x264/h264 » Horror


Dodał: Wilu75
Data dodania:
2017-06-30 21:58:35
Rozmiar: 3.08 GB
Seedów: 31
Peerów: 35
Pobrano: 153 razy

Komentarze: 0

==================
...::: INFO :::...
==================
Tytuł: Incarnate / Wcielenie
Ocena: IMDB - 5.2/10 (6723), Filmweb - 5.5/10 (1519)
Produkcja: USA
Gatunek: Horror, Thriller
Czas trwania: 86 min.
Premiera: 01.12.2016 - Świat
Reżyseria: Brad Peyton
Scenariusz: Ronnie Christensen

==================
...::: OPIS :::...
==================
Cameron mieszka wraz z matką w Nowym Yorku. Kobieta porzuciła męża alkoholika i samotnie wychowuje chłopca. Pewnego dnia jedenastolatek zostaje zaatakowany we własnym domu. Ale to nie on staje się ofiarą. To Cameron zabija. Szybko staje się jasne, że chłopiec został opętany. Najlepsi egzorcyści nie potrafią pozbyć się demona, wszystkie próby kończą się niepowodzeniem, a Cameron staje sie coraz bardziej niebezpieczny dla otoczenia. Jedyną osobą mogącą mu pomóc jest doktor Ember (Aaron Eckhart), który opracował technologię przenikania do ludzkiej psychiki.

====================
...::: OBSADA :::...
====================
Aaron Eckhar
[...]

»[Zobacz cały opis

==Torrent==
Kategoria: Filmy x264/h264 » Horror


Dodał: zibi6248
Data dodania:
2017-06-27 11:17:40
Rozmiar: 2.63 GB
Seedów: 20
Peerów: 0
Pobrano: 27 razy

Komentarze: 0

...( Info )...

Produkcja: Argentyna
Gatunek: horror
Premiera: 1 November 2015 (Argentina)
Reżyseria: Mariano Cattaneo
Scenariusz: Mariano Cattaneo, Sergio Salgueiro
https://www.youtube.com/watch?v=3HKcXEqH6pQ

...( Opis )...

Film składa się z dwóch pozornie niepowiązanych ze sobą historii. Pierwsza z nich przedstawia losy pewnej pary: zazdrosnej kobiety, która planuje odebrać sobie życie i jej bezradnego wobec trudnej sytuacji partnera. W drugiej historii dwaj mężczyźni porywają córkę wpływowej bizneswoman, Claudii Villegas. To, co z początku wydawało się perfekcyjną zbrodnią, wymyka się spod kontroli za sprawą nieoczekiwanego zwrotu. Gdy jeden z porywaczy dzwoni do bogatej matki, żądając okupu, okazuje się, że jej córka ma się dobrze i beztrosko gra w domu na fortepianie. Co gorsza, w budynku, w którym przetrzymują dziewczynę, dochodzi do przedziwnych i niewytłumaczalnych zdarzeń…

...( Obsada )...

★ Ariadna Asturzzi ....
★ German Baudino ....

...( Dane Tech
[...]

»[Zobacz cały opis

==Torrent==
Kategoria: Filmy x264/h264 » Horror


Dodał: daroj6
Data dodania:
2017-06-25 15:36:56
Rozmiar: 754.42 MB
Seedów: 25
Peerów: 0
Pobrano: 54 razy

Komentarze: 0

...( Info )...

Produkcja: Wielka Brytania
Gatunek: Horror, Komedia
Reżyseria: Gary Meyer
Scenariusz: Gary Meyer

...( O filmie )...

http://www.imdb.com/title/tt3167458/

http://www.filmweb.pl/film/Bachanalia-2014-698147

...( Opis )...

Grupa znajomych wyrusza za miasto na weekend, aby przy winie i wykwintnym jedzeniu odpocząć od codziennego zgiełku. Niespodziewanie sielanka zamienia się w bluźnierczą i rozpustną satanistyczną orgię.

...( Obsada )...

★ Edmund Digby-Jones .... Dave
★ Kyle Calderwood .... Kevin
★ Mariana Peñalva .... Randy
★ J.C. Montes-Roldan .... Pepe
★ Lucinda Rhodes Thakrar .... Sam

...( Dane Techniczne )...

Format: Matroska at 1 086 Kbp/s
Length: 754 MiB for 1 h 37 min

Video: AVC Visual at 900 Kbp/s
Aspect: 854x400 at 25.00 fps

Audio: AC3 at 192 Kbp/s
Info: 2 channels stereo, 44,1 KHz

==Torrent==
Kategoria: Filmy x264/h264 » Animowany


Dodał: RIAS
Data dodania:
2017-06-25 14:46:00
Rozmiar: 2.45 GB
Seedów: 12
Peerów: 5
Pobrano: 44 razy

Komentarze: 0

...( Info )...

Produkcja: Japonia
Gatunek: Horror, Anime
Premiera: 27 maja 2017 (świat)
Reżyseria: Takanori Tsujimoto
Scenariusz: Makoto Fukami

...( Opis )...

Chris Redfield wspomaga pomoc Leona S. Kennedy'ego i Rebeccy Chambers, aby powstrzymać kupca śmierci, z zemsty, rozprzestrzeniać śmiertelny wirus w Nowym Jorku.

...( Obsada )...

★ Matthew Mercer .... Leon S. Kennedy
★ Erin Cahill .... Rebecca Chambers
★ John DeMita .... Glenn Arias
★ Kevin Dorman .... Chris Redfield

...( Dane Techniczne )...

RELEASE: Resident.Evil.Vendetta.2017.720p.WEB-DL.X264.AC3-EVO
                     
SOURCE: iTunes :)

ViDEO: 3321 Kbps (L4.1@High)

RESOLUTiON: 1280x720

RUNTiME: 1h 37m 43s

SUBTiTLES: Bulgarian .srt.         

AUDiO: 384 Kbps AC3 5.1

LANGUAGE: ENGLiSH

==Torrent==
Kategoria: Filmy x264/h264 » Horror


Dodał: DarkAngel
Data dodania:
2017-06-17 12:09:48
Rozmiar: 930.73 MB
Seedów: 26
Peerów: 40
Pobrano: 38 razy

Komentarze: 0

...( Info )...

Reżyseria: Steven Kostanski, Jeremy Gillespie
Scenariusz: Jeremy Gillespie, Steven Kostanski
Gatunek: Horror
Produkcja: Kanada
Premiera: 31 marca 2017 (świat)

...( Opis )...

Film opowiada o policjancie, który wiezie pewnego człowieka do lokalnego szpitala. Wkrótce pracownicy i pacjenci zostają uwięzieni przez przerażające, nieziemskie zagrożenie i zmuszeni do zagłębienia się w głąb budynku, aby uciec z koszmaru.

...( Obsada )...

★ Aaron Poole     ... Daniel Carter
★ Kenneth Welsh ... Dr. Richard Powell
★ Daniel Fathers ... The Father
★ Kathleen Munroe ... Allison Fraser
★ Ellen Wong     ... Kim

...( Dane Techniczne )...

Format      : Matroska at 1.434 kb/s
Length      : 929 MiB for 1 h 30 min 36s 305 ms

Video #0     : MPEG-4 Visual at 830 kb/s
Aspect      : 720 x 304 (2.349) at 23.976 fps

Audio #0     : AC-3 at 576 kb/s
Infos       : 6 kanałów, 48,0 kHz
Language     : en


[...]

»[Zobacz cały opis

==Torrent==
Kategoria: Filmy x264/h264 » Horror


Dodał: DarkAngel
Data dodania:
2017-06-15 23:45:06
Rozmiar: 3.61 GB
Seedów: 34
Peerów: 12
Pobrano: 80 razy

Komentarze: 0

...( Info )...

Produkcja: USA
Gatunek: Horror
Premiera: 27 maja 2016 (Polska), 7 kwietnia 2016 (świat)
Reżyseria: Mike Flanagan
Scenariusz: Mike Flanagan, Jeff Howard

...( Opis )...

Młode małżeństwo, po tragicznej stracie ukochanego syna, adoptuje ośmioletniego chłopca. Jessie (Kate Bosworth) i Mark (Thomas Jane) robią wszystko, by stworzyć dziecku kochającą się i szczęśliwą rodzinę. Szybko okazuje się jednak, że Cody (Jacob Tremblay), który jest uroczym i grzecznym chłopcem, skrywa mroczny sekret. Kiedy Cody zasypia, jego sny stają się rzeczywistością. Koszmary również... Rodzinę zaczynają nawiedzać wyśnione przez chłopca demony. Jessie i Mark zrobią wszystko, by dotrzeć do źródła lęków syna, zanim ich życie zmieni się nie do poznania.

...( Obsada )...

★ Kate Bosworth .... Jessie
★ Thomas Jane .... Mark
★ Jacob Tremblay .... Cody
★ Avis-Marie Barnes .... Dyrektorka
★ Courtney Bell .... Andrea
★ Rigby Flanagan-Bell .... Młody Cody
★ Justin Gordon .... Lekarz T
[...]

»[Zobacz cały opis

==Torrent==
Kategoria: Filmy x264/h264 » Dokumentalny


Dodał: andrzej559
Data dodania:
2017-06-10 21:43:16
Rozmiar: 692.93 MB
Seedów: 59
Peerów: 16
Pobrano: 66 razy

Komentarze: 0

...( Info )...

1945 - okrutny pokój
(1945: The Savage Peace)
FILM DOKUMENTALNY Wielka Brytania 2015 od 16 lat
...( Opis )...


Gdy dla jednych zakończenie II wojny światowej oznaczało wolność, dla milionów Niemców było początkiem nowego, krwawego rozdziału. W odwecie za krzywdy wyrządzone na zlecenie Adolfa Hitlera musieli zapłacić bardzo wysoką cenę. Dokument przedstawia wstrząsającą historię zemsty, jaka została dokonana na niemieckiej ludności cywilnej. Oprawcy w odwecie używali często metod odzwierciedlających najgorsze działania nazistów. Film zawiera unikalne zeznania naocznych świadków i samych poszkodowanych - po 70. latach wciąż pamiętają horror, jaki przeżyli. Widzowie zobaczą wzruszający i żywy obraz Europy odradzającej się z gruzów.

...( Dane Techniczne )...
Format : Matroska at 1.681 Kb/s
Length : 692 MB for 57 min. 37s 576ms

Video #0 : AVC at 1.392 Kb/s
Aspect : 720 x 576 (1.818) at 25.000 fps

Audio #0 : MPEG Audio at 256 Kb/s
Infos : 2 kanały, 48,0
[...]

»[Zobacz cały opis

==Torrent==
Kategoria: Filmy x264/h264 » Horror


Dodał: gawroniasty
Data dodania:
2017-06-08 11:32:28
Rozmiar: 5.46 GB
Seedów: 205
Peerów: 144
Pobrano: 166 razy

Komentarze: 0

==================
...::: INFO :::...
==================
Tytuł: A Cure for Wellness / Lekarstwo na życie
Ocena: IMDB - 6.5/10 (19988), Filmweb - 6.2/10 (7177)
Produkcja: Niemcy, USA
Gatunek: Dramat, Fantasy, Horror
Czas trwania: 146 min.
Premiera: 17.02.2017 - Polska, 15.02.2017 - Świat
Reżyseria: Gore Verbinski
Scenariusz: Justin Haythe

==================
...::: OPIS :::...
==================
Ambitny młody pracownik wielkiej korporacji otrzymuje zadanie przywiezienia szefa swej firmy z idyllicznego, ale i tajemniczego ośrodka odnowy biologicznej, położonego w malowniczym zakątku w szwajcarskich Alpach. Ośrodek oferuje lekarstwo na wszelkie problemy i bolączki współczesnego świata, ale na miejscu okazuje się, że nic nie jest tym, czym mogłoby się wydawać. Bohater odkrywa mroczne sekrety i musi walczyć, by ocalić życie – i zdrowie psychiczne.

====================
...::: OBSADA :::...
====================
Dane DeHaan .... Lockhart
Jason Isaacs .... Volmer
Mia Goth
[...]

»[Zobacz cały opis

==Torrent==
Kategoria: Filmy x264/h264 » Horror


Dodał: Azrael
Data dodania:
2017-06-04 20:58:05
Rozmiar: 437.30 MB
Seedów: 13
Peerów: 5
Pobrano: 31 razy

Komentarze: 0

...( Info )...

Tytuł: The Moth Diaries / Internat
Ocena: IMDB - 4.7/10 (2431), Filmweb - 4/10 (3319)
Produkcja: USA
Gatunek: Horror
Czas trwania: 78 min.
Premiera: 06.09.2011 - Świat
Reżyseria: Mary Harron
Scenariusz: Rachel Klein

http://www.imdb.com/title/tt1407065/
http://www.filmweb.pl/film/Internat-2011-535232

...( Opis )...

Pełna erotycznego napięcia opowieść o narodzinach kobiecej zmysłowości i strachu przed namiętną siłą, która kusi, zniewala i podstępnie pozbawia życia młode mieszkanki angielskiego internatu.

...( Obsada )...

Sarah Bolger - Rebecca
Lily Cole - Ernessa
Sarah Gadon - Lucie
Melissa Farman - Dora
Laurence Hamelin - Sofia
Scott Speedman - Pan Davies
Valerie Tian - Charlie
Judy Parfitt - Panna Rood

...( Dane Techniczne )...

Format: MPEG-4 at 744 Kb/s
Length: 437 MB for 1h 22 min. 7s 381ms

Video #0: AVC at 640 Kb/s
Aspect: 720 x 384 (1.875) at 23.976 fps

Audio #0: AAC at 96,0 Kb/s
Infos: 2 kanały, 48,0 KHz

==Torrent==
Kategoria: Filmy x264/h264 » Horror


Dodał: DarkAngel
Data dodania:
2017-05-19 10:51:31
Rozmiar: 3.22 GB
Seedów: 26
Peerów: 57
Pobrano: 244 razy

Komentarze: 0

..::(Info)::..

Tytuł: The Autopsy of Jane Doe / Autopsja Jane Doe
Ocena: IMDB - 6.8/10 (35025), Filmweb - 6.4/10 (31240)
Produkcja: Wielka Brytania
Gatunek: Horror
Czas trwania: 86 min.
Premiera: 13.01.2017 - Polska, 09.09.2016 - Świat
Reżyseria: André Ovredal
Scenariusz: Ian B. Goldberg, Richard Naing

..::(O Filmie)::..

http://www.filmweb.pl/film/Autopsja+Jane+Doe-2016-751121

http://www.imdb.com/title/tt3289956/

..::(Opis)::..

Na odludziu znaleziono ciało pięknej dziewczyny. Wszystko wskazuje na to, że ofiara nie zmarła śmiercią naturalną. Dwaj patolodzy sądowi – ojciec i syn – muszą w ciągu jednej nocy ustalić przyczynę zgonu. To najlepsi specjaliści w mieście, pokładający bezgraniczną wiarę w siłę ludzkiego rozumu. Pracują metodycznie i spokojnie, odrzucając tropy, których nie da się wyjaśnić naukowo. Wkrótce jednak zmuszeni będą zweryfikować wszystkie swoje przekonania. Gdy zaczną pojmować sens prawdy, na której trop wpadli, będzie już za późno na odwrót. A
[...]

»[Zobacz cały opis

==Torrent==
Kategoria: Filmy x264/h264 » Horror


Dodał: Wilu75
Data dodania:
2017-05-18 18:17:33
Rozmiar: 3.22 GB
Seedów: 151
Peerów: 66
Pobrano: 170 razy

Komentarze: 0

==================
...::: INFO :::...
==================
Tytuł: The Autopsy of Jane Doe / Autopsja Jane Doe
Ocena: IMDB - 6.8/10 (35025), Filmweb - 6.4/10 (31240)
Produkcja: Wielka Brytania
Gatunek: Horror
Czas trwania: 86 min.
Premiera: 13.01.2017 - Polska, 09.09.2016 - Świat
Reżyseria: André Ovredal
Scenariusz: Ian B. Goldberg, Richard Naing

==================
...::: OPIS :::...
==================
Na odludziu znaleziono ciało pięknej dziewczyny. Wszystko wskazuje na to, że ofiara nie zmarła śmiercią naturalną. Dwaj patolodzy sądowi – ojciec i syn – muszą w ciągu jednej nocy ustalić przyczynę zgonu. To najlepsi specjaliści w mieście, pokładający bezgraniczną wiarę w siłę ludzkiego rozumu. Pracują metodycznie i spokojnie, odrzucając tropy, których nie da się wyjaśnić naukowo. Wkrótce jednak zmuszeni będą zweryfikować wszystkie swoje przekonania. Gdy zaczną pojmować sens prawdy, na której trop wpadli, będzie już za późno na odwrót. A nic z czym się dotąd zetknęli nie pr
[...]

»[Zobacz cały opis

==Torrent==
Kategoria: Filmy x264/h264 » Horror


Dodał: piotras78
Data dodania:
2017-05-16 11:08:29
Rozmiar: 2.74 GB
Seedów: 26
Peerów: 6
Pobrano: 26 razy

Komentarze: 0

...( Info )...

Dark Ride (2006)Tunel śmierci
reżyseria:Craig Singer
scenariusz:Craig SingerRobert Dean Klein
gatunek:Horror
produkcja:USA
premiera:20 października 2006 (świat)
1 godz. 34 min.

...( Opis )...

Dziesięć lat po brutalnym morderstwie dwóch dziewczyn, morderca ucieka z zakładu
psychiatrycznego i wraca na swoje terytorium - do parku rozrywki zwanego Dark Ride. W realizacji
jego mrocznego planu może przeszkodzić grupa uczniów collegu zwiedzająca park.

...( Obsada )...

Jamie-Lynn Sigler.....Cathy
Patrick Renna.....Bill
Alex Solowitz.....Jim
Andrea Bogart.....Jen
Jennifer Tisdale.....Liz
Brittney Coyle.....Colleen
Chelsey Cole.....Samantha
Dave Warden.....Jonah

...( Dane Techniczne )...

Format  : Matroska at 4.368 kb/s
Length  : 2,74 GB for 1 h 29 min 57s 56 ms

Video   : AVC at 4.089 kb/s
Aspect  : 1920 x 1080 (1.778) at 25.000 fps

Audio   : AC-3 at 192 kb/s
Infos   : 2 kanały, 48,0 kHz
Language   : pl

==Torrent==
Kategoria: Filmy x264/h264 » Horror


Dodał: feldfebel1
Data dodania:
2017-05-11 08:33:14
Rozmiar: 3.31 GB
Seedów: 68
Peerów: 6
Pobrano: 17 razy

Komentarze: 0

...( Info )...

Produkcja: USA
Gatunek: Horror
Czas trwania: 91 min.
Premiera: BRAK DANYCH
Reżyseria: Rolfe Kanefsky
Scenariusz: Rolfe Kanefsky


...( Opis )...

Po przeprowadzce do wymarzonego domu młoda para odkrywa w piwnicy mroczny sekret, który przebywał tam od lat.


...( Obsada )...

John Michaelson,
Jeff Dylan Graham,
Arthur Brown,
Caleb Scott


...( Dane Techniczne )...

Video
ID : 1
Format : AVC
Format/Info : Advanced Video Codec
Format profile : High@L4
Format settings, CABAC : Yes
Format settings, ReFrames : 5 frames
Codec ID : V_MPEG4/ISO/AVC
Duration : 1h 34mn
Bit rate : 4 522 Kbps
Width : 1 920 pixels
Height : 816 pixels
Display aspect ratio : 2.35:1
Frame rate mode : Constant
Frame rate : 23.976 (24000/1001) fps
Color space : YUV
Chroma subsampling : 4:2:0
Bit depth : 8 bits
Scan type : Progressive
Bits/(Pixel*Frame) : 0.120
Stream size : 2.99 GiB (90%)
Title : The.Black.Room.2016.1080p.WEB-DL
[...]

»[Zobacz cały opis

==Torrent==
Kategoria: Filmy x264/h264 » Horror


Dodał: topp2p
Data dodania:
2017-05-08 15:51:25
Rozmiar: 653.76 MB
Seedów: 398
Peerów: 289
Pobrano: 386 razy

Komentarze: 0

...( Info )...

Produkcja: USA
Gatunek: Horror
Premiera: 28 kwietnia 2017 (Polska), 23 stycznia 2017 (świat)
Reżyseria: Jordan Peele
Scenariusz: Jordan Peele

...( Opis )...

Historia młodego czarnoskórego chłopaka, Chrisa Washingtona (Daniel Kaluuya), który wybiera się z zapoznawczą wizytą do posiadłości rodziców jego białej dziewczyny – Rose Armitage (znana z serialu "Dziewczyny" Allison Williams). Szybko orientuje się, że atmosfera domu jest, mówiąc delikatnie, dziwna. Nie spodziewa się jednak, że powodem zaproszenia nie jest wyłącznie chęć poznania go przez rodziców Rose. Chris wierzy, że nerwowa atmosfera panująca w domu Armitage’ów wynika z przyczyn rasowych. Niedługo jednak odkryje zadziwiającą prawdę. Prawdę, jakiej nie mógł się spodziewać...

...( Obsada )...

★ Daniel Kaluuya .... Chris Washington
★ Allison Williams .... Rose Armitage
★ Catherine Keener .... Missy Armitage
★ Bradley Whitford .... Dean Armitage
★ Caleb Landry Jones .... Jeremy Armitage
★ Ma
[...]

»[Zobacz cały opis

==Warez==
Kategoria: Filmy x264/h264 » Horror


Dodał: topp2p
Data dodania:
2017-05-08 15:43:44
Komentarze: 0

...( Info )...

Produkcja: USA
Gatunek: Horror
Premiera: 28 kwietnia 2017 (Polska), 23 stycznia 2017 (świat)
Reżyseria: Jordan Peele
Scenariusz: Jordan Peele

...( Opis )...

Historia młodego czarnoskórego chłopaka, Chrisa Washingtona (Daniel Kaluuya), który wybiera się z zapoznawczą wizytą do posiadłości rodziców jego białej dziewczyny – Rose Armitage (znana z serialu "Dziewczyny" Allison Williams). Szybko orientuje się, że atmosfera domu jest, mówiąc delikatnie, dziwna. Nie spodziewa się jednak, że powodem zaproszenia nie jest wyłącznie chęć poznania go przez rodziców Rose. Chris wierzy, że nerwowa atmosfera panująca w domu Armitage’ów wynika z przyczyn rasowych. Niedługo jednak odkryje zadziwiającą prawdę. Prawdę, jakiej nie mógł się spodziewać...

...( Obsada )...

★ Daniel Kaluuya .... Chris Washington
★ Allison Williams .... Rose Armitage
★ Catherine Keener .... Missy Armitage
★ Bradley Whitford .... Dean Armitage
★ Caleb Landry Jones .... Jeremy Armitage
★ Ma
[...]

»[Zobacz cały opis

==Torrent==
Kategoria: Filmy x264/h264 » Akcja


Dodał: gawroniasty
Data dodania:
2017-04-29 18:36:52
Rozmiar: 4.37 GB
Seedów: 193
Peerów: 187
Pobrano: 434 razy

Komentarze: 0

..::(Info)::..

Tytuł: Resident Evil: The Final Chapter / Resident Evil: Ostatni rozdział
Ocena: IMDB - 6.0/10 (20662), Filmweb - 5.7/10 (5497)
Produkcja: Australia, Francja, Kanada, Niemcy
Gatunek: Akcja, Horror, Sci-Fi
Czas trwania: 107 min.
Premiera: 27.01.2017 - Polska, 23.12.2016 - Świat
Reżyseria: Paul W.S. Anderson
Scenariusz: Paul W.S. Anderson

..::(Opis)::..

Przed nami nowa, zamykająca serię odsłona popularnej sagi "Resident Evil". To ostateczna rozgrywka Alice (Milla Jovovich) z groźnym koncernem Umbrella. Wydarzenia przedstawione w filmie odnoszą się bezpośrednio do koszmaru, jaki uczyniono ludzkości w "Resident Evil: Retrybucja". Alice musi wrócić do źródła tego koszmaru – laboratorium The Hive w Raccoon City, gdzie Umbrella zwiera szyki, i stawić czoła tym, co przetrwali w walce o… przetrwanie ludzkości.

..::(Obsada)::..

Milla Jovovich .... Alice / Alicia Marcus
Iain Glen .... Dr Isaacs
Ali Larter .... Claire Redfield
Shawn Roberts .... Wesker
Eoin
[...]

»[Zobacz cały opis

==Torrent==
Kategoria: Filmy x264/h264 » Horror


Dodał: gawroniasty
Data dodania:
2017-04-28 17:13:27
Rozmiar: 3.63 GB
Seedów: 190
Peerów: 23
Pobrano: 319 razy

Komentarze: 0

..::(Info)::..

Produkcja: USA
Gatunek: Horror
Premiera: 3 lutego 2017 (Polska), 1 lutego 2017 (świat)
Reżyseria: F. Javier Gutiérrez
Scenariusz: David Loucka, Jacob Estes, Akiva Goldsman

..::(Opis)::..

Nowy rozdział znakomitej i przerażającej serii horrorów. Młoda kobieta, martwiąc się o swego chłopaka, zafascynowanego informacjami o tajemniczym wideo, po obejrzeniu którego giną ludzie, decyduje się obejrzeć film za niego. Wkrótce odkrywa przerażającą prawdę: informacje są prawdziwe, a wideo zawiera tajemniczy przekaz...

..::(Obsada)::..

Matilda Anna Ingrid Lutz .... Julia
Alex Roe .... Holt
Johnny Galecki .... Gabriel
Vincent D`Onofrio .... Burke
Aimee Teegarden .... Skye
Bonnie Morgan .... Samara
Chuck David Willis .... Blue
Patrick R. Walker .... Jamal

..::(Dane Techniczne)::..

Format : Matroska at 5 081 Kbps
Length : 3.63 GiB for 1h 42mn 9s 581ms

Video #0 : AVC at 4 888 Kbps
Aspect : 1280 x 720 (1.778) at 23.976 fps

Audio #0 : AC-3 at 192 Kb
[...]

»[Zobacz cały opis

==Torrent==
Kategoria: Filmy x264/h264 » Horror


Dodał: piotras78
Data dodania:
2017-04-27 11:01:08
Rozmiar: 4.34 GB
Seedów: 0
Peerów: 0
Pobrano: 25 razy

Komentarze: 0


...( Info )...


Produkcja: Czechy, USA
Gatunek: Horror, Przygodowy
Reżyseria: Stephen Sommers
Scenariusz: Stephen Sommer


...( Opis )...


Postać profesora Abrahama Van Helsinga po raz pierwszy zaistniała w kinie w adaptacji "Drakuli" Brama Stokera z 1931 roku autorstwa Toda Browninga i od tego momentu jeszcze kilkadziesiąt razy pojawiała się na dużym ekranie. Akcja filmu Stephena Sommersa osadzona jest w drugiej połowie XIX wieku. Słynny łowca potworów, profesor Van Helsing zostaje wezwany do tajemniczej krainy w Europie Wschodniej, gdzie ma za zadanie pokonać siły zła, uosabiane przez hrabiego Drakulę, Człowieka-Wilka i monstrum stworzone przez doktora Frankensteina. Jego asystentką zostaje piękna Anna, spadkobierczyni zacnej rodziny, od wieków prowadzącej walkę z Drakulą.


...( Obsada )...


Hugh Jackman ... Van Helsing
Kate Beckinsale ... Anna Valerious
Richard Roxburgh ... Hrabia Vladislaus Dracula
David Wenham ... Carl
Shuler Hensley ... Potwór
[...]

»[Zobacz cały opis

==Torrent==
Kategoria: Filmy x264/h264 » Horror


Dodał: topp2p
Data dodania:
2017-04-27 08:18:51
Rozmiar: 1.42 GB
Seedów: 47
Peerów: 31
Pobrano: 179 razy

Komentarze: 0

...( Info )...

Reżyseria: Steven Kostanski, Jeremy Gillespie
Scenariusz: Jeremy Gillespie, Steven Kostanski
Gatunek: Horror
Produkcja: Kanada
Premiera: 31 marca 2017 (świat)

...( Opis )...

Film opowiada o policjancie, który wiezie pewnego człowieka do lokalnego szpitala. Wkrótce pracownicy i pacjenci zostają uwięzieni przez przerażające, nieziemskie zagrożenie i zmuszeni do zagłębienia się w głąb budynku, aby uciec z koszmaru.

...( Obsada )...

★ Kathleen Munroe .... Allison
★ Ellen Wong .... Kim
★ Aaron Poole .... Daniel Carter
★ Kenneth Welsh .... Dr Richard Powell
★ Art Hindle .... Mitchell
★ Daniel Fathers .... Vincent
★ Stephanie Belding .... Beverly
★ Evan Stern .... James

...( Dane Techniczne )...

Release : The.Void.2016.BDRip.x264.AC3-Manning
Format : Matroska at 2.249 kb/s
Length : 1,42 GB for 1 h 30 min 36s 395 ms
Video #0 : AVC at 1.800 kb/s
Aspect : 720 x 304 (2.368) at 23.976 fps
Audio #0 : AC-3 at 448 kb/s
Infos : 6 kanałów, 48,0 kHz

[...]

»[Zobacz cały opis

==Warez==
Kategoria: Filmy x264/h264 » Horror


Dodał: topp2p
Data dodania:
2017-04-27 08:11:16
Komentarze: 0

...( Info )...

Reżyseria: Steven Kostanski, Jeremy Gillespie
Scenariusz: Jeremy Gillespie, Steven Kostanski
Gatunek: Horror
Produkcja: Kanada
Premiera: 31 marca 2017 (świat)

...( Opis )...

Film opowiada o policjancie, który wiezie pewnego człowieka do lokalnego szpitala. Wkrótce pracownicy i pacjenci zostają uwięzieni przez przerażające, nieziemskie zagrożenie i zmuszeni do zagłębienia się w głąb budynku, aby uciec z koszmaru.

...( Obsada )...

★ Kathleen Munroe .... Allison
★ Ellen Wong .... Kim
★ Aaron Poole .... Daniel Carter
★ Kenneth Welsh .... Dr Richard Powell
★ Art Hindle .... Mitchell
★ Daniel Fathers .... Vincent
★ Stephanie Belding .... Beverly
★ Evan Stern .... James

...( Dane Techniczne )...

Release : The.Void.2016.BDRip.x264.AC3-Manning
Format : Matroska at 2.249 kb/s
Length : 1,42 GB for 1 h 30 min 36s 395 ms
Video #0 : AVC at 1.800 kb/s
Aspect : 720 x 304 (2.368) at 23.976 fps
Audio #0 : AC-3 at 448 kb/s
Infos : 6 kanałów, 48,0 kHz

[...]

»[Zobacz cały opis

==Torrent==
Kategoria: Filmy x264/h264 » Horror


Dodał: gawroniasty
Data dodania:
2017-04-27 01:35:35
Rozmiar: 2.19 GB
Seedów: 64
Peerów: 11
Pobrano: 92 razy

Komentarze: 0

..::(Info)::..

Produkcja: Kanada
Gatunek: Horror
Premiera: 22 września 2016 (świat)
Reżyseria: Jeremy Gillespie
Scenariusz: Jeremy Gillespie, Steven Kostanski

..::(Opis)::..

Podczas rutynowego patrolu policjant trafia na rannego mężczyznę. Gdy zabiera go do położonego na pustkowiu szpitala, odkrywa, że tajemniczy nieznajomy oraz pozostali pacjenci zaczynają przechodzić przerażającą metamorfozę. Wraz z kilkoma napotkanymi osobami policjant rozpoczyna walkę o przetrwanie.

..::(Obsada)::..

Kathleen Munroe .... Allison
Ellen Wong .... Kim
Aaron Poole .... Daniel Carter
Kenneth Welsh .... Dr Richard Powell
Art Hindle .... Mitchell
Daniel Fathers .... Vincent
Stephanie Belding .... Beverly
Evan Stern .... James

..::(Dane Techniczne)::..

Format : AVI at 3.455 Kb/s
Length : 2,19 GB for 1h 30 min. 36s 398ms

Video #0 : MPEG-4 Visual at 2.995 Kb/s
Aspect : 1280 x 536 (2.388) at 23.976 fps

Audio #0 : AC-3 at 448 Kb/s
Infos : 6 kanałów, 48,0 KHz

==Torrent==
Kategoria: Filmy x264/h264 » Horror


Dodał: Azrael
Data dodania:
2017-04-26 11:50:08
Rozmiar: 354.91 MB
Seedów: 2
Peerów: 0
Pobrano: 30 razy

Komentarze: 0

...( Info )...

Tytuł: From Within / Miasto śmierci
Ocena: IMDB - 5.7/10 (2037), Filmweb - 6.07/10 (196)
Produkcja: USA
Gatunek: Horror, Thriller
Czas trwania: 90 minut
Premiera: 25.04.2008 - Świat
Reżyseria: Phedon Papamichael
Scenariusz: Brad Keene
Muzyka: Jason Cooper, Oliver Kraus
Zdjęcia: Rafael E. Sánchez

http://www.imdb.com/title/tt1063056/
http://www.filmweb.pl/film/Miasto+%C5%9Bmierci-2008-449923

...( Opis )...

Młoda dziewczyna dorasta w małym, bardzo chrześcijańskim miasteczku i pragnie poznać świat. Kiedy ludzie w jej mieście giną w tajemniczy sposób, dziewczyna chce wydostać się z miasta bardziej niż kiedykolwiek... (filmweb.pl)

...( Obsada )...

Elizabeth Rice ... Lindsay
Thomas Dekker ... Aidan
Kelly Blatz ... Dylan
Laura Allen ... Trish
Adam Goldberg ... Roy

...( Dane Techniczne )...

Format: MPEG-4 at 579 Kb/s
Length: 355 MB for 1h 25 min. 45s 963ms

Video #0: AVC at 512 Kb/s
Aspect: 720 x 288 (2.500) at 24.820 fps

Audio #0: AA
[...]

»[Zobacz cały opis

==Torrent==
Kategoria: Filmy x264/h264 » Horror


Dodał: Azrael
Data dodania:
2017-04-26 08:16:59
Rozmiar: 375.54 MB
Seedów: 5
Peerów: 2
Pobrano: 35 razy

Komentarze: 0

...( Info )...
Tytuł: Recreator / Rekreator
Ocena: IMDB - 4/10 (596), Filmweb - 4.1/10 (231)
Produkcja: USA
Gatunek: Horror, Sci-Fi
Czas trwania: 91 min.
Premiera: 12.08.2012 - Polska, 17.02.2012 - Świat
Reżyseria: Gregory Orr
Scenariusz: Gregory Orr
Aktorzy: Stella Maeve, Alexander Nifong, J. Mallory-McCree
Muzyka:Jeff Carruthers, Rick Conrad
Zdjęcia: David Tumblety

http://www.imdb.com/title/tt1540005/
http://www.filmweb.pl/film/Rekreator-2012-548878

...( Opis )...
Troje przyjaciół podczas kempingu natyka się na sekretne laboratorium tajemniczego naukowca z pasją klonowania. Dzieciaki spotykają swoje klony, które są od nich szybsze i silniejsze. Tracy, Craig i Derek zostają uwięzieni przez swoje duplikaty a ich jedyną szansą jest przechytrzenie kopii i ucieczka zanim zostaną zastąpieni. (filmweb.pl)

...( Obsada )...
Stella Maeve ... Tracy Bernstein / Tracy 2
Alexander Nifong ... Craig Carlson / Craig 2 (as Alexander Paul Nifong)
J. Mallory McCree ... Derek Joh
[...]

»[Zobacz cały opis

==Torrent==
Kategoria: Filmy x264/h264 » Horror


Dodał: FOX
Data dodania:
2017-04-25 16:40:21
Rozmiar: 2.79 GB
Seedów: 190
Peerów: 31
Pobrano: 412 razy

Komentarze: 1

--------------------------------------------------
========== Rip by FOX ==========
===== POPRAWNE TŁUMACZENIE =====
--------------------------------------------------


...( Info )...

Produkcja: USA
Gatunek: Horror
Premiera: 3 lutego 2017 (Polska), 1 lutego 2017 (świat)
Reżyseria: F. Javier Gutiérrez
Scenariusz: David Loucka, Jacob Estes, Akiva Goldsman

...( Opis )...

Nowy rozdział znakomitej i przerażającej serii horrorów. Młoda kobieta, martwiąc się o swego chłopaka, zafascynowanego informacjami o tajemniczym wideo, po obejrzeniu którego giną ludzie, decyduje się obejrzeć film za niego. Wkrótce odkrywa przerażającą prawdę: informacje są prawdziwe, a wideo zawiera tajemniczy przekaz...

...( Obsada )...

★ Matilda Anna Ingrid Lutz .... Julia
★ Alex Roe .... Holt
★ Johnny Galecki .... Gabriel
★ Vincent D`Onofrio .... Burke
★ Aimee Teegarden .... Skye
★ Bonnie Morgan .... Samara
★ Chuck David Willis .... Blue
★ Patrick R. Walker .... Jamal
[...]

»[Zobacz cały opis

==Torrent==
Kategoria: Filmy x264/h264 » Horror


Dodał: FOX
Data dodania:
2017-04-18 14:16:46
Rozmiar: 2.64 GB
Seedów: 55
Peerów: 20
Pobrano: 132 razy

Komentarze: 0

-------------------------------------------
======== Rip by FOX ========
======== PREMIERA ========
-------------------------------------------

...( Info )...

Produkcja: USA
Gatunek: Horror
Premiera: 6 maja 2011 (świat)
Reżyseria: Israel Luna
Scenariusz: Israel Luna

...( Opis )...

Podczas studenckiej imprezy z tabliczką ouija pojawia się duch, który zamienia zwykły wieczór w niewyobrażalny horror.

...( Obsada )...

★ Justin Armstrong .... Michael
★ Dave Clark .... Joseph
★ Miranda Martinez .... Lisa Mendoza
★ Swisyzinna .... LyNette
★ Taylor Terry .... Szalona kobieta
★ Carson Underwood .... Brandon
★ Eric Window .... Calvin

...( Dane Techniczne )...

Ogólne:
Format : Matroska
Rozmiar pliku : 2,64 GB
Czas trwania : 1 h 31 min
Całkowita przepływność bitów : 4.120 kb/s

Wideo:
Format : AVC
ID kodeka : V_MPEG4/ISO/AVC
Czas trwania : 1 h 31 min
Przepływność bitów : 3.846 kb/s
Szerokość : 1.920 pikseli
Wysokość : 1.0
[...]

»[Zobacz cały opis

==Torrent==
Kategoria: Filmy x264/h264 » Horror


Dodał: feldfebel1
Data dodania:
2017-04-10 16:11:16
Rozmiar: 3.13 GB
Seedów: 178
Peerów: 15
Pobrano: 38 razy

Komentarze: 0

...( Info )...

Produkcja: Kanada
Gatunek: Horror
Premiera: 31 marca 2017 (świat)
Reżyseria: Jeremy Gillespie
Scenariusz: Jeremy Gillespie, Steven Kostanski


...( Opis )...

Podczas rutynowego patrolu policjant trafia na rannego mężczyznę. Gdy zabiera go do położonego na pustkowiu szpitala, odkrywa, że tajemniczy nieznajomy oraz pozostali pacjenci zaczynają przechodzić przerażającą metamorfozę. Wraz z kilkoma napotkanymi osobami policjant rozpoczyna walkę o przetrwanie.


...( Obsada )...

★ Kathleen Munroe .... Allison
★ Ellen Wong .... Kim
★ Aaron Poole .... Daniel Carter
★ Kenneth Welsh .... Dr Richard Powell
★ Art Hindle .... Mitchell
★ Daniel Fathers .... Vincent
★ Stephanie Belding .... Beverly
★ Evan Stern .... James


...( Dane Techniczne )...

Video
ID : 1
Format : AVC
Format/Info : Advanced Video Codec
Format profile : High@L4
Format settings, CABAC : Yes
Format settings, ReFrames : 5 frames
Codec ID : V_MPEG4/ISO/AVC
[...]

»[Zobacz cały opis

==Torrent==
Kategoria: Filmy x264/h264 » Horror


Dodał: Azrael
Data dodania:
2017-04-06 12:30:31
Rozmiar: 434.96 MB
Seedów: 0
Peerów: 0
Pobrano: 16 razy

Komentarze: 0

...( Info )...
Tytuł: Boogeyman / Licho
Ocena: IMDB - 3.9/10 (410), Filmweb - 3.2/10 (663)
Czas trwania: 1 godz. 25 min.
Gatunek: Horror
Produkcja: USA
Premiera: 11.08.2012 - Świat
Reżyseria: Jeffery Scott Lando
Scenariusz: David Reed
Muzyka: Claude Foisy
Zdjęcia: Alexander Krumov

http://www.imdb.com/title/tt2118737/
http://www.filmweb.pl/film/Licho-2012-662891

...( Opis )...
Po tragicznej śmierci matki bracia Isaac (Danny Horn) i Jacob (Gabriel Steele) są wychowywani przez ojca policjanta (Eddie McClintock). Pewnego dnia podczas gry w futbol jeden z przyjaciół Isaaca wrzuca dla żartu telefon Jacoba przez okno starego domu należącego do zdziwaczałego starca, Skinnera. Nie mogąc liczyć na wsparcie starszego brata, Jacob sam udaje się na teren posesji, o której wśród miejscowej młodzieży krążą przerażające historie. W trakcie poszukiwań otwiera drzwi na poddaszu, nieświadomie uwalniając przetrzymywaną tam bestię o biblijnym rodowodzie. Chłopcy, spłoszeni nagłym pojawie
[...]

»[Zobacz cały opis

==Warez==
Kategoria: Filmy x264/h264 » Horror


Dodał: feldfebel1
Data dodania:
2017-04-02 21:40:57
Komentarze: 0

...( Info )...

Produkcja: USA
Gatunek: Horror
Premiera: 23 stycznia 2016 (świat)
Reżyseria: Rob Zombie
Scenariusz: Rob Zombie


...( Opis )...

31 października 1976 roku. W niewyjaśnionych okolicznościach zostaje porwana grupa pracowników wesołego miasteczka. Napastnikami jest kilku mężczyzn o pomalowanych na biało twarzach. Dwie kobiety i trzej mężczyźni zostają zmuszeni do udziału w diabolicznej grze o nazwie 31. Przez kolejne dwanaście godzin muszą desperacko walczyć o swoje życie w ekstremalnych warunkach.


...( Obsada )...

★ Malcolm McDowell .... Ojciec Morderca
★ Sheri Moon Zombie .... Charly
★ Torsten Voges .... Death-head
★ Elizabeth Daily .... Sex-head
★ Jane Carr .... Sister Serpent
★ Ginger Lynn .... Cherry Bomb
★ Richard Brake .... Doom-Head
★ Lew Temple .... Psycho-Head


...( Dane Techniczne )...

Format : Matroska at 4 750 Kbps
Length : 3.42 GiB for 1h 43mn 10s 236ms
Video #0 : AVC at 4 555 Kbps
Aspect : 1280 x 536 (2.38
[...]

»[Zobacz cały opis

==Torrent==
Kategoria: Filmy x264/h264 » Horror


Dodał: Wilu75
Data dodania:
2017-03-21 23:59:16
Rozmiar: 6.90 GB
Seedów: 25
Peerów: 61
Pobrano: 296 razy

Komentarze: 0

==================
...::: INFO :::...
==================
Tytuł: Underworld: Blood Wars / Underworld: Wojny krwi
Ocena: IMDB - 5.9/10 (29708), Filmweb - 5.9/10 (13346)
Produkcja: USA
Gatunek: Horror, Akcja
Czas trwania: 91 min.
Premiera: 05.01.2017 - Świat
Reżyseria: Anna Foerster
Scenariusz: Cory Goodman, Kyle Ward

==================
...::: OPIS :::...
==================
Kolejna część przebojowej serii o rywalizujących na śmierć i życie wampirach i Lykanach. Dwa zwaśnione światy przenikają się w brutalnej walce o supremację i przeżycie. W postać pięknej i przebiegłej Selene ponownie wcieli się Kate Beckinsale.

====================
...::: OBSADA :::...
====================
Kate Beckinsale.......... - Selene
Theo James............... - David
Tobias Menzies........... - Marius
Lara Pulver.............. - Semira
Charles Dance............ - Thomas
James Faulkner........... - Cassius
Peter Andersson.......... - Vidar
Clementine Nicholson..... - Lena

==========
[...]

»[Zobacz cały opis

==Torrent==
Kategoria: Filmy x264/h264 » Horror


Dodał: Wilu75
Data dodania:
2017-03-21 19:06:36
Rozmiar: 3.25 GB
Seedów: 19
Peerów: 11
Pobrano: 264 razy

Komentarze: 1

==================
...::: INFO :::...
==================
Tytuł: Underworld: Blood Wars / Underworld: Wojny krwi
Ocena: IMDB - 5.9/10 (29708), Filmweb - 5.9/10 (13346)
Produkcja: USA
Gatunek: Horror, Akcja
Czas trwania: 91 min.
Premiera: 05.01.2017 - Świat
Reżyseria: Anna Foerster
Scenariusz: Cory Goodman, Kyle Ward

==================
...::: OPIS :::...
==================
Kolejna część przebojowej serii o rywalizujących na śmierć i życie wampirach i Lykanach. Dwa zwaśnione światy przenikają się w brutalnej walce o supremację i przeżycie. W postać pięknej i przebiegłej Selene ponownie wcieli się Kate Beckinsale.

====================
...::: OBSADA :::...
====================
Kate Beckinsale.......... - Selene
Theo James............... - David
Tobias Menzies........... - Marius
Lara Pulver.............. - Semira
Charles Dance............ - Thomas
James Faulkner........... - Cassius
Peter Andersson.......... - Vidar
Clementine Nicholson..... - Lena

==========
[...]

»[Zobacz cały opis

==Torrent==
Kategoria: Filmy x264/h264 » Akcja


Dodał: RIAS
Data dodania:
2017-03-17 19:19:26
Rozmiar: 3.29 GB
Seedów: 45
Peerów: 41
Pobrano: 105 razy

Komentarze: 0

...( Info )...

Produkcja: Australia, Francja, Kanada, Niemcy, USA
Gatunek: Horror, Akcja
Premiera: 27 stycznia 2017 (Polska), 13 grudnia 2016 (świat)
Reżyseria: Paul W.S. Anderson
Scenariusz: Paul W.S. Anderson

...( Opis )...

Kolejna odsłona kultowej filmowej serii opartej na jednej z najpopularniejszych w historii gier komputerowych. Piękna i niebezpieczna Alice (Milla Jovovich) zmierzy się z kolejnymi wrogami, którzy zagrażają światu. Również ona nie może czuć się bezpieczna. Pierwsza część filmu miała premierę w 2002 roku, od tego czasu seria zdobyła serca fanów na całym świecie, przynosząc prawie miliard dolarów dochodu. Fenomen serii opiera się na wybuchowej mieszance kina akcji, science fiction, horroru, thrillera i specyficznego poczucia humoru.

...( Obsada )...

★ Milla Jovovich .... Alice / Alicia Marcus
★ Iain Glen .... Dr Isaacs
★ Ali Larter .... Claire Redfield
★ Shawn Roberts .... Wesker
★ Eoin Macken .... Doc
★ Fraser James .... Razor
★ Ruby Rose
[...]

»[Zobacz cały opis

==Warez==
Kategoria: Filmy x264/h264 » Horror


Dodał: feldfebel1
Data dodania:
2017-03-15 13:30:17
Komentarze: 0

...( Info )...

Produkcja: USA
Gatunek: Horror
Czas trwania: 97 min.
Premiera: 07.03.2017 - Świat
Reżyseria: Bryan Brewer
Scenariusz: Bryan Brewer, Laura Greenman Heine


...( Opis )...

Pragnąc dokończyć pracę z antropologii, grupa studentów udaje się do Parku Narodowego Joshua Tree, by zweryfikować jedną z miejskich legend. Pomimo ostrzeżeń lokalsów, kontynuują podróż i stają się kolejnym rozdziałem przerażającej historii.


...( Obsada )...

Bryan Brewer...Ethan
Cree Kelly...Kennedy
Allie Rivera...Jade
Thatcher Robinson...Noah
Marshal Hilton...James
Marisa Davila...Kelly
Alan Maxson...The Rake


...( Dane Techniczne )...

Format : Matroska at 5.293 kb/s
Length : 3,59 GB for 1 h 37 min 5s 528 ms

Video #0 : AVC
Aspect : 1920 x 1080 (1.778) at 23.976 fps

Audio #0 : AAC
Infos : 2 kanały, 48,0 kHz
Language : en

Text #0 : UTF-8
Language : en

==Torrent==
Kategoria: Filmy x264/h264 » Horror


Dodał: topp2p
Data dodania:
2017-03-09 07:47:21
Rozmiar: 3.42 GB
Seedów: 170
Peerów: 228
Pobrano: 220 razy

Komentarze: 0

...( Info )...

Produkcja: Brazylia, Kanada, USA, Wielka Brytania
Gatunek: Horror
Premiera: 23 stycznia 2015 (świat)
Reżyseria: Robert Eggers
Scenariusz: Robert Eggers

...( Opis )...

Nowa Anglia, 1630 rok. William i Katherine wiodą spokojne życie z piątką dzieci. Gdy ich nowo narodzony syn znika, a plony niszczeją,
członkowie rodziny zwracają się przeciwko sobie.

...( Obsada )...

★ Anya Taylor-Joy .... Thomasin
★ Ralph Ineson .... William
★ Kate Dickie .... Katherine
★ Harvey Scrimshaw .... Caleb
★ Lucas Dawson .... Jonas

...( Dane Techniczne )...

Format : Matroska at 5.302 Kb/s
Length : 3,42 GB for 1h 32 min. 26s 583ms
Video #0 : AVC at 5.111 Kb/s
Aspect : 1200 x 720 (1.667) at 23.976 fps
Audio #0 : AC-3 at 192 Kb/s
Infos : 2 kanały, 48,0 KHz

==Warez==
Kategoria: Filmy x264/h264 » Horror


Dodał: topp2p
Data dodania:
2017-03-09 07:23:16
Komentarze: 0

...( Info )...

Produkcja: Brazylia, Kanada, USA, Wielka Brytania
Gatunek: Horror
Premiera: 23 stycznia 2015 (świat)
Reżyseria: Robert Eggers
Scenariusz: Robert Eggers

...( Opis )...

Nowa Anglia, 1630 rok. William i Katherine wiodą spokojne życie z piątką dzieci. Gdy ich nowo narodzony syn znika, a plony niszczeją,
członkowie rodziny zwracają się przeciwko sobie.

...( Obsada )...

★ Anya Taylor-Joy .... Thomasin
★ Ralph Ineson .... William
★ Kate Dickie .... Katherine
★ Harvey Scrimshaw .... Caleb
★ Lucas Dawson .... Jonas

...( Dane Techniczne )...

Format : Matroska at 5.302 Kb/s
Length : 3,42 GB for 1h 32 min. 26s 583ms
Video #0 : AVC at 5.111 Kb/s
Aspect : 1200 x 720 (1.667) at 23.976 fps
Audio #0 : AC-3 at 192 Kb/s
Infos : 2 kanały, 48,0 KHz

==Torrent==
Kategoria: Filmy x264/h264 » Horror


Dodał: feldfebel1
Data dodania:
2017-02-21 09:02:07
Rozmiar: 2.82 GB
Seedów: 69
Peerów: 2
Pobrano: 56 razy

Komentarze: 0

...( Info )...

Produkcja: USA
Gatunek: Horror
Premiera: 22 stycznia 2017 (świat)
Reżyseria: St. Vincent
Scenariusz: Jovanka Vuckovic, Jennifer Chambers Lynch


...( Opis )...

Cztery przerażające historie. Za kamerą i przed nią wykazują się wyłącznie kobiety. Takie czasy .


...( Obsada )...

★ Curt Cornelius .... Dr Roman "Her Only Living Son"
★ Lisa Costanza .... Cora, kelnerka "Her Only Living Son"
★ Michael Dyson .... Mężczyzna "The Box"
★ Natalie Brown .... Susan Jacobs "The Box"
★ Mike Doyle .... Chet "The Box"
★ Peter DaCunha .... Danny Jacobs "The Box"
★ Peyton Kennedy .... Jenny Jacobs "The Box"
★ Christina Kirk .... Cora "Her Only Living Son"


...( Dane Techniczne )...

Video
ID : 1
Format : AVC
Format/Info : Advanced Video Codec
Format profile : High@L4
Format settings, CABAC : Yes
Format settings, ReFrames : 5 frames
Codec ID : V_MPEG4/ISO/AVC
Duration : 1h 20mn
Bit rate : 4 510 Kbps
Width : 1 920 pixels
Heigh
[...]

»[Zobacz cały opis

==Torrent==
Kategoria: Filmy x264/h264 » Horror


Dodał: Wilu75
Data dodania:
2017-02-09 20:20:07
Rozmiar: 3.86 GB
Seedów: 19
Peerów: 11
Pobrano: 270 razy

Komentarze: 0

==================
...::: INFO :::...
==================
Tytuł: Ouija: Origin of Evil / Ouija: Narodziny zła
Ocena: IMDB - 6.2/10 (22867), Filmweb - 5.4/10 (9141)
Produkcja: USA
Gatunek: Horror, Thriller
Czas trwania: 98 min.
Premiera: 28.10.2016 - Polska, 20.10.2016 - Świat
Reżyseria: Mike Flanagan
Scenariusz: Mike Flanagan, Jeff Howard

==================
...::: OPIS :::...
==================
Gra w Ouija jeszcze się nie skończyła i przyniesie kolejne śmiertelne żniwo. Znów znajdziemy się w przerażających, pełnych tajemnic zaświatach, gdzie nikomu nie można ufać.

====================
...::: OBSADA :::...
====================
Annalise Basso........... - Lina Zander
Elizabeth Reaser......... - Alice Zander
Lulu Wilson.............. - Doris Zander
Henry Thomas............. - Ojciec Tom Hogan
Parker Mack.............. - Mikey
Halle Charlton........... - Ellie
Alexis G. Zall........... - Betty
Doug Jones............... - Upiór Marcus

===================
...
[...]

»[Zobacz cały opis

==Torrent==
Kategoria: Filmy x264/h264 » Horror


Dodał: everdarksoul
Data dodania:
2017-02-08 06:25:58
Rozmiar: 0.98 GB
Seedów: 14
Peerów: 6
Pobrano: 42 razy

Komentarze: 0

...( Info )...

gatunek: horror, romans / typ: film pełnometrażowy
produkcja: Indie / data emisji: 2016 (świat)
scenariusz i reżyseria: Vikram Bhatt

...( Opis )...

Shaina i Rehan są młodym małżeństwem. Przyjeżdżają do Rumunii - kraju, w którym oboje byli już wcześniej, tam poznali się i pokochali - ponieważ Rehan otrzymał wyjątkowo korzystną ofertę pracy. Oprócz lukratywnego kontraktu, firma oferuje im również okazały dom na czas pobytu - jednak już wkróce po przeprowadzce, zaczynają się dziać w nim różne dziwne rzeczy...
Shaina niemal od początku podejrzewa wpływ złych mocy, lecz Rehan jest sceptyczny. Nawet, gdy podczas jego podróży służbowej, przerażona dzwoni do niego i opisuje mu nasilającą się paranormalną aktywność, ten bagatelizuje sprawę. Dopiero gdy pewnej nocy Shaina usiłuje go zabić - wreszcie dostrzega roblem i postanawia działać.
Początkowo zwracają się o pomoc do miejscowego księdza, lecz ten nie jest w stanie im pomóc. Wtedy na odsiecz przybywa też były chło
[...]

»[Zobacz cały opis

==Torrent==
Kategoria: Filmy x264/h264 » Horror


Dodał: Wilu75
Data dodania:
2017-02-02 19:19:56
Rozmiar: 1.69 GB
Seedów: 19
Peerów: 11
Pobrano: 127 razy

Komentarze: 0

...( Info )...



Produkcja: USA
Gatunek: Horror, Akcja
Czas trwania: 80 min.
Premiera: 14.10.2016 - Świat

...( Opis )...

Kontynuacja hitu z 2010 roku. Martin przemierza bezkresne krainy splądrowane przez wampiry w poszukiwaniu swego mentora, Mistera, pogromcy wampirów.

...( Obsada )...

Connor Paolo............. - Martin
Nick Damici.............. - Mister
Adam Scarimbolo.......... - Kevin
Chance Kelly............. - Oficer Harley
Marianne Hagan........... - Doktor Foley
Sean Nelson.............. - Willie

...( Dane Techniczne )...

Format : Matroska at 2.991 Kb/s
Length : 1,69 GB for 1h 20 min. 54s 990ms

Video #0 : AVC at 2.600 Kb/s
Aspect : 1280 x 720 (1.778) at 23.976 fps

Audio #0 : AC-3 at 384 Kb/s
Infos : 6 kanałów, 48,0 KHz
Language : en

Source : 1080p.HDTV.x264-W4F
Wersja językowa : Wtopione Napisy PL

==Torrent==
Kategoria: Filmy x264/h264 » Akcja


Dodał: everdarksoul
Data dodania:
2017-02-02 12:15:04
Rozmiar: 1.90 GB
Seedów: 113
Peerów: 74
Pobrano: 136 razy

Komentarze: 0

...( Info )...

gatunek: akcja, fantasy, horror / typ: film pełnometrażowy
produkcja: Australia / data emisji: 15-11-2007 (Australia)
scenariusz i reżyseria: Shane Abbess
wsp. scenariusza: Matt Hylton Todd

...( Opis )...

Gabriel to mroczny film akcji, którego akcja rozgrywa się w czyśćcu. Opowiada o zmaganiach między Archaniołami a Upadłymi Aniołami o kontrolę nad miastem i jego ludnością, składającą się z odrodzonych dusz.
Obecnie w czyśćcu króluje Ciemność. Gabriel jako ostatni z siedmiu Archaniołów zostaje zesłany by przywrócić temu miejscu światło. Niestety aby tego dokonać musi przybrać ludzką formę.
W tym mrocznym miejscu ludzkich dusz, samotny Archanioł będzie musiał stawić czoło swoim ludzkim uczuciom - co okaże się równie trudne jak walka z Upadłymi...

...( Obsada )...

Andy Whitfield jako Gabriel
Samantha Noble jako Jade
Dwaine Stevenson jako Sammael
Michael Piccirilli jako Asmodeus
Jack Campbell jako Raphael
Erika Heynatz jako Lilith
... i inni ...

[...]

»[Zobacz cały opis

==Torrent==
Kategoria: Filmy x264/h264 » Horror


Dodał: Truski
Data dodania:
2017-02-01 23:55:37
Rozmiar: 593.98 MB
Seedów: 0
Peerów: 0
Pobrano: 46 razy

Komentarze: 0

...( Info )...

Produkcja: Kanada
Gatunek: Horror
Premiera: 16 lipca 2016 (świat)
Reżyseria: Jeff Maher
Scenariusz: Cody Calahan, Jeff Maher

...( Opis )...

Czwórka przyjaciół, chcąc świętować urodziny jednego z nich wynajmuje pokój w miejscowym hotelu. Nikt z nich nie wie, że pokój nr 18, na który się decydują skrywa w sobie mroczną tajemnicę. Znajduje się w nim łóżko wykonane z drzewa, na którym w średniowieczu wieszano skazańców. Pozostanie na nim to konfrontacja z przerażającymi halucynacjami, które prowadzą do autodestrukcji. Jaką tajemnicę kryje łóżko? Czy uda się ją odkryć? Wreszcie, jakie znaczenie w tym wszystkim mają dawne grzechy?

...( Obsada )...

★ Colin Price .... Virgil
★ Alysa King .... Sandy
★ Gwenlyn Cumyn .... Nancy
★ Dennis Andres .... Oficer policji
★ George Krissa .... Córka Virgila
★ Andre Guantanamo .... Jake

...( Dane Techniczne )...

Format...............: Matroska at 982 kb/s
Length...............: 594 MiB for 1 h 24 min 31s 517 m
[...]

»[Zobacz cały opis

==Torrent==
Kategoria: Filmy x264/h264 » Thriller


Dodał: gawroniasty
Data dodania:
2017-01-27 20:12:05
Rozmiar: 4.72 GB
Seedów: 0
Peerów: 1
Pobrano: 141 razy

Komentarze: 0

..::(Info)::..

Tytuł: The Harvest / Hodowla
Produkcja: USA
Gatunek: Dramat, Horror, Thriller
Czas trwania: 104 min.
Premiera: 19.10.2013 - Świat
Reżyseria: John McNaughton
Scenariusz: Stephen Lancellotti

..::(Opis)::..

Maryann (Natasha Calis) to nastolatka, która po śmierci rodziców przeprowadziła się do dziadków. Samotna w nowym otoczeniu, wałęsając się po okolicy, trafia do położonego na uboczu domu, w którym mieszka w absolutnej izolacji śmiertelnie chory, poruszający się na wózku Andy (Charlie Tahan). Między spragnionymi towarzystwa dzieciakami nawiązuje się trwała więź, którą próbuje zerwać apodyktyczna i nadopiekuńcza matka chłopca (Samantha Morton). Maryann szybko odkrywa, że tajemnicze zachowanie ojca (Michael Shannon) i matki Andy’ego ma podłoże w czymś więcej niż rodzicielska troska. 

..::(Obsada)::..

Michael Shannon.......... - Richard
Natasha Calis............ - Maryann
Charlie Tahan............ - Andy
Peter Fonda.............. - Dziadek
Leslie Ly
[...]

»[Zobacz cały opis

==Torrent==
Kategoria: Filmy x264/h264 » Horror


Dodał: feldfebel1
Data dodania:
2017-01-20 20:12:24
Rozmiar: 2.65 GB
Seedów: 54
Peerów: 5
Pobrano: 117 razy

Komentarze: 0

...( Info )...

Produkcja: USA
Gatunek: Horror
Czas trwania: 81 min.
Premiera: 20.01.2017 - Świat
Reżyseria: Suneel Tripuraneni
Scenariusz: Bruce Durbin, Suneel Tripuraneni


...( Opis )...

Po przeprowadzce do nowego domu, z dala od miejskiego zgiełku, małżeństwo urządza swoją pierwszą domówkę. Gdy jeden z gości opowiada im historię, która doprowadzi do ich śmierci, wyśmiewają go. Z czasem jednak zaczynają w nią coraz bardziej wierzyć.


...( Obsada )...

Kelsey Deanne,
Chase Austin,
Jessica Willis,
Sheril Rodgers


...( Dane Techniczne )...

Video
ID : 1
Format : AVC
Format/Info : Advanced Video Codec
Format profile : High@L4
Format settings, CABAC : Yes
Format settings, ReFrames : 5 frames
Codec ID : V_MPEG4/ISO/AVC
Duration : 1h 21mn
Width : 1 912 pixels
Height : 812 pixels
Display aspect ratio : 2.35:1
Frame rate mode : Constant
Frame rate : 23.976 (24000/1001) fps
Color space : YUV
Chroma subsampling : 4:2:0
Bit
[...]

»[Zobacz cały opis

==Warez==
Kategoria: Filmy x264/h264 » Horror


Dodał: feldfebel1
Data dodania:
2017-01-16 12:56:55
Komentarze: 0

...( Info )...

Produkcja: USA
Gatunek: Horror
Czas trwania: 77 min.
Premiera: 03.01.2017 - Świat (DVD)
Reżyseria: Mark Polonia
Scenariusz: Billy D'Amato


...( Opis )...

Tym razem niesławny dom opętuje niewinną jak lilia córkę właścicieli. Oczy domowników z nadzieją kierują się w stronę tajemniczego księdza ruszającego do walki z demoniczną siłą czyhajacą w domu.


...( Obsada )...

Marie DeLorenzo ... Amy Dukane
Jeff Kirkendall ... Father Benna
James Carolus ... Jeremy Dukane
Austin Dragovich ... Robby
Steve Diasparra ... Father Jonas


...( Dane Techniczne )...

Format: Matroska / WebM at 1473.81 kbps
Length: 816.99 MB for 01:17:30
Video: MPEG-4 AVC at 0 kbps
Aspect: 720x400 at 47.952 fps
Audio: ATSC A/52A (AC-3) at 384 kbps
Info: 2 channels stereo 48000 Hz

==Torrent==
Kategoria: Filmy x264/h264 » Horror


Dodał: feldfebel1
Data dodania:
2017-01-12 18:32:19
Rozmiar: 3.27 GB
Seedów: 26
Peerów: 2
Pobrano: 37 razy

Komentarze: 0

...( Info )...

Produkcja: USA
Gatunek: Horror
Premiera:
Reżyseria: Glenn Douglas Packard
Scenariusz: Darryl F. Gariglio, Glenn Douglas Packard


...( Opis )...

Grupa przyjaciół wraca do domu z kolegą, z którym dzielą sekret. Dowiadują się, że starsze tajemnice mogą okazać się śmiercionośne.


...( Obsada )...

★ Daniel Wilkinson .... Ben Holister Jr. / Pitchfork
★ Brian Raetz .... Lenox
★ Lindsey Nicole .... Flo


...( Dane Techniczne )...

Video
ID : 1
Format : AVC
Format/Info : Advanced Video Codec
Format profile : High@L4
Format settings, CABAC : Yes
Format settings, ReFrames : 5 frames
Codec ID : V_MPEG4/ISO/AVC
Duration : 1h 34mn
Bit rate : 4 462 Kbps
Width : 1 920 pixels
Height : 808 pixels
Display aspect ratio : 2.40:1
Frame rate mode : Constant
Frame rate : 23.976 fps
Color space : YUV
Chroma subsampling : 4:2:0
Bit depth : 8 bits
Scan type : Progressive
Bits/(Pixel*Frame) : 0.120
Stream size : 2.95 GiB (
[...]

»[Zobacz cały opis

==Torrent==
Kategoria: Filmy x264/h264 » Horror


Dodał: feldfebel1
Data dodania:
2017-01-06 20:31:13
Rozmiar: 3.56 GB
Seedów: 15
Peerów: 4
Pobrano: 73 razy

Komentarze: 0

...( Info )...

Produkcja: USA
Gatunek: Horror
Premiera: 28 października 2016 (Polska), 20 października 2016 (świat)
Reżyseria: Mike Flanagan
Scenariusz: Mike Flanagan, Jeff Howard


...( Opis )...

Gra w Ouija jeszcze się nie skończyła i przyniesie kolejne śmiertelne żniwo. Znów znajdziemy się w przerażających, pełnych tajemnic zaświatach, gdzie nikomu nie można ufać.


...( Obsada )...

★ Annalise Basso .... Lina Zander
★ Elizabeth Reaser .... Alice Zander
★ Lulu Wilson .... Doris Zander
★ Henry Thomas .... Ojciec Tom Hogan
★ Parker Mack .... Mikey
★ Halle Charlton .... Ellie
★ Alexis G. Zall .... Betty
★ Doug Jones .... Upiór Marcus


...( Dane Techniczne )...

Video
ID : 1
Format : AVC
Format/Info : Advanced Video Codec
Format profile : High@L4
Format settings, CABAC : Yes
Format settings, ReFrames : 4 frames
Codec ID : V_MPEG4/ISO/AVC
Duration : 1h 38mn
Width : 1 916 pixels
Height : 1 032 pixels
Display aspect ratio :
[...]

»[Zobacz cały opis

==Torrent==
Kategoria: Filmy x264/h264 » Horror


Dodał: topp2p
Data dodania:
2016-12-28 15:41:01
Rozmiar: 3.18 GB
Seedów: 201
Peerów: 135
Pobrano: 633 razy

Komentarze: 0

...( Info )...

Produkcja: USA
Gatunek: Horror
Czas trwania: 90 min.
Premiera: 05.07.2016 - Świat
Reżyseria: Pearry Reginald Teo
Scenariusz: Pearry Reginald Teo

...( Opis )...

Łowcy duchów starają się nawiązać kontakt ze zmarłymi, którzy zginęli z rąk seryjnego mordercy. Zamierzają pomóc im odejść w zaświaty. Sprawę komplikuje pojawienie się wrogich upiorów.

...( Obsada )...

★ Liz Fenning .... Jessica
★ Anna Harr .... Gabby
★ Stephen Manley .... Henry
★ Aaron Moses .... Stanley
★ David O`Donnell .... Neal

...( Dane Techniczne )...

Format : Matroska at 5 065 Kbps
Length : 3.18 GiB for 1h 29mn 52s 576ms

Video #0 : AVC at 4 888 Kbps
Aspect : 1280 x 720 (1.778) at 23.976 fps

Audio #0 : AC-3 at 192 Kbps
Infos : 2 channels, 48.0 KHz

==Warez==
Kategoria: Filmy x264/h264 » Horror


Dodał: topp2p
Data dodania:
2016-12-28 15:17:44
Komentarze: 0

...( Info )...

Produkcja: USA
Gatunek: Horror
Czas trwania: 90 min.
Premiera: 05.07.2016 - Świat
Reżyseria: Pearry Reginald Teo
Scenariusz: Pearry Reginald Teo

...( Opis )...

Łowcy duchów starają się nawiązać kontakt ze zmarłymi, którzy zginęli z rąk seryjnego mordercy. Zamierzają pomóc im odejść w zaświaty. Sprawę komplikuje pojawienie się wrogich upiorów.

...( Obsada )...

★ Liz Fenning .... Jessica
★ Anna Harr .... Gabby
★ Stephen Manley .... Henry
★ Aaron Moses .... Stanley
★ David O`Donnell .... Neal

...( Dane Techniczne )...

Format : Matroska at 5 065 Kbps
Length : 3.18 GiB for 1h 29mn 52s 576ms

Video #0 : AVC at 4 888 Kbps
Aspect : 1280 x 720 (1.778) at 23.976 fps

Audio #0 : AC-3 at 192 Kbps
Infos : 2 channels, 48.0 KHz

==Torrent==
Kategoria: Filmy x264/h264 » Sci-fi


Dodał: marss
Data dodania:
2016-12-06 20:53:15
Rozmiar: 3.80 GB
Seedów: 4
Peerów: 7
Pobrano: 184 razy

Komentarze: 0

...( Info )...

Produkcja: Czechy, USA,
Gatunek: Horror, Przygodowy,
Premiera: 7 maja 2004 (Polska), 3 maja 2004 (świat)
Reżyseria: Stephen Sommers,
Scenariusz: Stephen Sommers,

...( Opis )...

Postać profesora Abrahama Van Helsinga po raz pierwszy zaistniała w kinie w adaptacji "Drakuli" Brama Stokera z 1931 roku autorstwa Toda Browninga i od tego momentu jeszcze kilkadziesiąt razy pojawiała się na dużym ekranie. Akcja filmu Stephena Sommersa osadzona jest w drugiej połowie XIX wieku. Słynny łowca potworów, profesor Van Helsing zostaje wezwany do tajemniczej krainy w Europie Wschodniej, gdzie ma za zadanie pokonać siły zła, uosabiane przez hrabiego Drakulę, Człowieka-Wilka i monstrum stworzone przez doktora Frankensteina. Jego asystentką zostaje piękna Anna, spadkobierczyni zacnej rodziny, od wieków prowadzącej walkę z Drakulą.

...( Obsada )...

★ Hugh Jackman .... Van Helsing
★ Kate Beckinsale .... Anna Valerious
★ Richard Roxburgh .... Hrabia Vladislaus Dracul
[...]

»[Zobacz cały opis

==Torrent==
Kategoria: Filmy x264/h264 » Horror


Dodał: Wilu75
Data dodania:
2016-12-06 20:46:03
Rozmiar: 3.26 GB
Seedów: 78
Peerów: 58
Pobrano: 541 razy

Komentarze: 1

==================
...::: INFO :::...
==================
Tytuł: Morgan
Ocena: IMDB - 5.8/10 (6022), Filmweb - 5.6/10 (3730)
Produkcja: USA
Gatunek: Horror, Thriller, Sci-Fi
Czas trwania: 91 min.
Premiera: 09.09.2016 - Polska, 02.09.2016 - Świat
Reżyseria: Luke Scott
Scenariusz: Seth W. Owen

==================
...::: OPIS :::...
==================
Przedstawicielka wielkiej korporacji, która specjalizuje się w rozwiązywaniu ryzykownych sytuacji, wysłana zostaje do odległego, ściśle tajnego laboratorium, by wyjaśnić sprawę przerażającego wypadku. Na miejscu przekonuje się, że za wypadkiem stoi z pozoru niewinna „istota ludzka”, która kryje w sobie zarówno niezwykły potencjał, jak i ogromne zagrożenie.

====================
...::: OBSADA :::...
====================
Kate Mara................ - Lee Weathers
Anya Taylor-Joy.......... - Morgan
Rose Leslie.............. - Dr Amy Menser
Michael Yare............. - Ted Brenner
Toby Jones............... - Dr Simon Ziegler
[...]

»[Zobacz cały opis

==Torrent==
Kategoria: Filmy x264/h264 » Dramat


Dodał: gawroniasty
Data dodania:
2016-12-05 21:15:56
Rozmiar: 1.00 GB
Seedów: 1
Peerów: 0
Pobrano: 28 razy

Komentarze: 0

..::(Info)::..

Gatunki: Dramat
Reżyseria: Marta Miłoszewska

Teatroteka to cykl ekranizacji polskiej młodej dramaturgii teatralnej realizowany przez Wytwórnię Filmów Dokumentalnych i Fabularnych.
Teatroteka to nowy etap w myśleniu o ekranizacjach teatralnych, tak w kontekście artystycznym, jak i realizacyjnym. Ekranizacje tworzone przez młodych, często debiutujących twórców, przy wsparciu technologii i infrastruktury filmowej, pozwalają na realizację ciekawych, nowatorskich utworów.

..::(Opis)::..

Trash Story albo sztuka (nie)pamięci to rzecz o niemożności zapomnienia, o pamięci, z którą trudno jest się rozliczyć. Jedną z inspiracji Magdy Fertacz do napisania sztuki był tom reportaży Włodzimierza Nowaka "Obwód głowy", a konkretnie reportaż o zbiorowym samobójstwie niemieckich kobiet w 1945 roku popełnionym na wieść o zbliżającym się froncie rosyjskim.
Ekranizacja Trash Story to horror o nawiedzonym domu, w którym demony historii prześladują współczesnych mieszkańców. W ni
[...]

»[Zobacz cały opis

==Torrent==
Kategoria: Filmy x264/h264 » Horror


Dodał: gawroniasty
Data dodania:
2016-11-24 17:29:37
Rozmiar: 1.34 GB
Seedów: 1
Peerów: 0
Pobrano: 95 razy

Komentarze: 0

..::(Info)::..

Produkcja: USA
Gatunek: Horror | Thriller
Czas trwania: 90 min.
Premiera: 03.06.2016 - Świat
Reżyseria: Mark Pavia
Scenariusz: Mark Pavia

..::(Opis)::..

Hilary, która właśnie odebrała swoje prawko, zalicza pierwszą stłuczkę. Jako dobrze wychowana dziewczyna, wymienia się danymi personalnymi z poszkodowanym. Wkrótce, podczas burzowej nocy, nawiedza ją nieznajomy w masce, szukający swojej kolejnej ofiary.

..::(Obsada)::..

Makenzie Vega............ - Hilary
Bill Sage................ - Kierowca
Cassidy Freeman.......... - Jennifer
Lora Martinez-Cunningham. - Olga
Dre Davis................ - Rachel
Steven Michael Quezada... - Mario
Kelsey Leos Montoya...... - Erik
Harrison Sim............. -

..::(Dane Techniczne)::..

Fender.Bender.2016.SUBPL.HDRip.DD5.1.x264-BDP

Format : Matroska at 2.102 kb/s
Length : 1,33 GB for 1 h 30 min 53s 790 ms

Video #0 : AVC at 1.748 kb/s
Aspect : 720 x 304 (2.368) at 23.976 fps

Audio #0 : AC-3 at 384 kb/s
[...]

»[Zobacz cały opis

==Torrent==
Kategoria: Filmy x264/h264 » Komedia


Dodał: gawroniasty
Data dodania:
2016-11-24 17:22:47
Rozmiar: 707.44 MB
Seedów: 0
Peerów: 9
Pobrano: 85 razy

Komentarze: 0

..::(Info)::..

Gatunek: Horror, Komedia
Produkcja: USA
Premiera: 15 kwietnia 2016 (świat)
Reżyseria: Vincent Masciale
Operator: Shan Liljestrand
Scenariusz: Luke Barnett

..::(Opis)::..

Spragniony mocnych wrażeń amator horrorów, decyduje się zgłosić do firmy zajmującej się organizowaniem strasznych eventów. Nie spodziewa się najgorszego.

..::(Obsada)::..

Lucas Neff
Caitlin Stasey
Chris Marquette
Abigail Breslin
Stephanie Drake
Eric Lange
Mark Moses
Leslie Jordan

..::(Dane Techniczne)::..

Format : Matroska at 1.076 kb/s
Length : 707 MiB for 1 h 31 min 49s 301 ms
Video #0 : AVC at 900 kb/s
Aspect : 720 x 304 (2.405) at 23.976 fps
Audio #0 : AC-3 at 192 kb/s
INFOs : 2 kanały, 48,0 kHz
Text #0 : UTF-8
Language : pl

Wersja Językowa......: Angielska / wmuksowane napisy PL + osobno w paczce napisy PL

====================================================

==Torrent==
Kategoria: Filmy x264/h264 » Horror


Dodał: gawroniasty
Data dodania:
2016-11-23 20:16:42
Rozmiar: 1.15 GB
Seedów: 0
Peerów: 0
Pobrano: 72 razy

Komentarze: 0

..::(Info)::..

Gatunek: Horror, Wojenny, Sci-Fi
Produkcja: USA
Premiera: 19 kwietnia 2008 (świat)
Reżyseria: Kevin Gendreau
Scenariusz: Kevin Gendreau

..::(Opis)::..

W trakcie II wojny światowej pewien amerykański oficer, dowodzący grupą pilotek, musi wykonać ważną misję - dostarczyć tajną broń na jedną z wysp położonych na Pacyfiku. W trakcie podróży napotykają na śmiertelnie niebezpieczną burzę, z której udaje im się ujść bez szwanku. Po dotarciu do celu przyjdzie im zmierzyć się nie tylko z oddziałem japońskich żołnierzy, ale także z wrogimi prehistorycznymi pterodaktylami...

..::(Obsada)::..

Jamie Elle Mann.......... - Max West
Tohoru Masamune.......... - Ozu
David Jensen............. - Pułkownik W.R. Hamilton
Brian Krause............. - Jack Toller
Gizza Elizondo........... - Vicky Teeling
Marel Medina............. - Katzu
Lucy Faust............... - Hoodsie Smith
Stephanie Honoré......... - Lana

..::(Dane Techniczne)::..

Format: MPEG-4 at 1.930 kb/
[...]

»[Zobacz cały opis

==Torrent==
Kategoria: Filmy x264/h264 » Western


Dodał: Wilu75
Data dodania:
2016-11-18 19:25:54
Rozmiar: 4.69 GB
Seedów: 42
Peerów: 44
Pobrano: 276 razy

Komentarze: 0

==================
...::: INFO :::...
==================
Tytuł: Bone Tomahawk / Cmenatrzysko ludożerców
Ocena: IMDB - 7.1/10 (39287), Filmweb - 6.4/10 (9310)
Produkcja: USA
Gatunek: Horror, Western
Czas trwania: 132 min.
Premiera: 01.10.2015 - Świat
Reżyseria: S.Craig Zahler
Scenariusz: S.Craig Zahler

==================
...::: OPIS :::...
==================
Dziki Zachód po sezonie. Mała, leniwa mieścina o wiele znaczącej nazwie Bright Hope. Pusty saloon, błękitne niebo, wypalony słońcem piasek… Cały ten spokój burzy dziwny gość pojawiający się z nagła w miasteczku… Przybysz zachowuje się niepokojąco i nijak nie pasuje do stoickiego spokoju, jakim obdarzeni są mieszkańcy. Swoją postawą prowokuje Szeryfa, a że na Dzikim Zachodzie wszystko dzieje się szybko, o strzelaninę nie trudno. Nieznajomy dostaje strzał w nogę, trafia do więzienia, gdzie całonocny dyżur pełnić ma przy nim młoda i piękna lekarka. Wszystko wydaje się wracać do normy: Szeryf spełnił swój obowiązek, napa
[...]

»[Zobacz cały opis

Przeglądaj
1 - 60 | 61 - 120 | 121 - 165
<< Poprzednia      Następna >>
Najlepsze strony Torrentowe Najlepsza Toplista Torrent Torrenty Torrentz forum Pozycjonowanie