Kategorie
Ranking
RSS
Hostmark

vps z directadmin
Statystyki
Użytkowników:
Zarejestrowanych wczoraj:
Zarejestrowanych dzisiaj:
Torrentów:
Dodanych wczoraj:
Dodanych dzisiaj:
Warezów:
Dodanych wczoraj:
Dodanych dzisiaj:
127,612
31
28
222,816
130
129
19,141
34
14
Ostatnie 30
Popularne
w Maju
==Torrent==
Kategoria: Filmy RMVB » Fantasy

Dodał: topp2p
Data dodania:
2014-07-03 21:00:37
Rozmiar: 288.49 MB
Seedów: 0
Peerów: 0

Pobrano: 8104 razy
Kondycja:







Hansel i Gretel: Łowcy czarownic - Hansel and Gretel: Witch Hunters *2013* [DVDRip] [RMVB HQ] [Lektor PL IVO]



Tytuł: "Hansel i Gretel: Łowcy czarownic" / "Hansel and Gretel: Witch Hunters"
Gatunek: Fantasy Horror Akcja
Produkcja: Niemcy, USA
Premiera: 8 lutego 2013 (Polska) 17 stycznia 2013 (świat)
Reżyseria: Tommy Wirkola
Scenariusz: D.W. Harper, Tommy Wirkola
Czas emisji: 88 minut



Klasyczna historia w zaskakującej konwencji horroru i kina akcji. Od wydarzeń w chatce z piernika minęło piętnaście lat. Jaś i Małgosia są już dziś dojrzałymi ludźmi. Mimo to rodzeństwo nadal łączy niezwykła misja ? na całym świecie nie ma lepszych od nich łowców czarownic. Już wkrótce czeka ich polowanie, podczas którego ich umiejętności zostaną wystawione na najcięższą próbę.



? Gemma Arterton ... Gretel
? Jeremy Renner ... Hansel
? Famke Janssen ... Muriel
? Peter Stormare ... Berringer
? Zoe Bell ... Wysoka wiedźma
? Derek Mears ... Edward
? Monique Ganderton ... Cukierkowa wiedźma
? Thomas Mann ... Ben




FILM Z LEKTOREM SYNTETYCZNYM IVONA!!!
Oczywiście lektor mistrzowsko podłozony przes Bogdana53.Convert wykonany przez FLEXER-a.Wszystko super.Kopia dla posiadaczy łącz limitowanych oraz fanów RMVB, tu jest conversja na RM- Top Quality. Zapraszam.

General

Format : RealMedia
File size : 288 MB
Duration : 1h 27mn
Overall bit rate : 450 Kbps

Video
ID : 1
Format : RealVideo 4
Codec ID : RV40
Codec ID/Info : Based on AVC (H.264), Real Player 9
Duration : 1h 27mn
Bit rate : 386 Kbps
Width : 640 pixels
Height : 272 pixels
Display aspect ratio : 2.35:1
Frame rate : 23.976 fps
Bits/(Pixel*Frame) : 0.092
Stream size : 243 MiB (84%)

Audio
ID : 0
Format : Cooker
Codec ID : cook
Codec ID/Info : Based on G.722.1, Real Player 6
Duration : 1h 27mn
Bit rate : 64.1 Kbps
Channel(s) : 2 channels
Sampling rate : 44.1 KHz
Bit depth : 16 bits
Stream size : 40.3 MiB (14%)

Lista plików Show/Hide [Pokaż/Ukryj]
Trackery Show/Hide[Pokaż/Ukryj trackery]
Podobne Pliki

Komentarze
Dodaj komentarz

Brak komentarzy!