Kategorie
Ranking
RSS
Hostmark

vps z directadmin
Statystyki
Użytkowników:
Zarejestrowanych wczoraj:
Zarejestrowanych dzisiaj:
Torrentów:
Dodanych wczoraj:
Dodanych dzisiaj:
Warezów:
Dodanych wczoraj:
Dodanych dzisiaj:
123,508
85
3
211,766
136
23
17,625
31
0
Ostatnie 30
Popularne
w Marcu
==Torrent==
Kategoria: Filmy 4K » Przygodowy

Dodał: Esperanza
Data dodania:
2021-02-17 09:49:37
Rozmiar: 14.60 GB
Seedów: 11
Peerów: 36

Pobrano: 102 razy
Kondycja:







Skarb narodów: Księga tajemnic - National.Treasure.Book.of.Secrets (2007) [BDrip][2160p][HDR][H.265][DD 5.1][Lektor PL] [Esperanza]

Pobrałeś/aś podziękuj To nic nie kosztuje a Motywuje!!




Produkcja: USA,
Gatunek: Przygodowy,
Premiera: 4 stycznia 2008 (Polska), 13 grudnia 2007 (świat)
Reżyseria: Jon Turteltaub,
Scenariusz: Cormac Wibberley, Marianne Wibberley,



Dołącz do Nicolasa Cage'a w podnoszącej poziom adrenaliny wyprawie w poszukiwaniu zaginionego Złotego Miasta. Zakorzeniony w historii, otoczony mitami i tajemnicą film Disneya "Skarb Narodów: Księga Tajemnic" zabiera Cię w podróż dookoła świata, na przygodę pełną nieoczekiwanych zwrotów akcji w poszukiwaniu, oficjalnie nieistniejącej, Księgi Tajemnic - zbioru największych sekretów gromadzonych przez wieki. Jest tylko jeden szkopuł - by ją zdobyć Ben Gates musi porwać Prezydenta...



Nicolas Cage .... Ben Gates
Diane Kruger .... Abigail Chase
Jon Voight .... Patrick Gates
Justin Bartha .... Riley Poole
Helen Mirren .... Emily Appleton
Ed Harris .... Mitch Wilkinson
Harvey Keitel .... Sadusky Bruce Greenwood .... Prezydent USA



Skarb narodów Księga tajemnic - National.Treasure.Book.of.Secrets [BDrip][2160p][HDR][H.265][DD 5.1][Lektor PL].mkv
Format           : Matroska
Format version       : Version 4
File size          : 14.6 GiB
Duration          : 2 h 5 min
Overall bit rate      : 16.7 Mb/s
Encoded date        : UTC 2020-10-12 20:10:19
Writing application     : mkvmerge v49.0.0 ('Sick Of Losing Soulmates') 64-bit
Writing library       : libebml v1.4.0 + libmatroska v1.6.1

Video
ID             : 2
Format           : HEVC
Format/Info         : High Efficiency Video Coding
Format profile       : Main 10@L5@High
Codec ID          : V_MPEGH/ISO/HEVC
Duration          : 2 h 5 min
Bit rate          : 16.2 Mb/s
Width            : 3 840 pixels
Height           : 2 160 pixels
Display aspect ratio    : 16:9
Frame rate mode       : Constant
Frame rate         : 23.976 (24000/1001) FPS
Color space         : YUV
Chroma subsampling     : 4:2:0
Bit depth          : 10 bits
Bits/(Pixel*Frame)     : 0.082
Stream size         : 14.2 GiB (97%)
Language          : English
Default           : Yes
Forced           : No
Color range         : Limited
Color primaries       : BT.2020
Transfer characteristics  : PQ
Matrix coefficients     : BT.2020 non-constant

Audio
ID             : 1
Format           : AC-3
Format/Info         : Audio Coding 3
Commercial name       : Dolby Digital
Codec ID          : A_AC3
Duration          : 2 h 4 min
Bit rate mode        : Constant
Bit rate          : 448 kb/s
Channel(s)         : 6 channels
Channel layout       : L R C LFE Ls Rs
Sampling rate        : 48.0 kHz
Frame rate         : 31.250 FPS (1536 SPF)
Compression mode      : Lossy
Stream size         : 399 MiB (3%)
Language          : Polish
Service kind        : Complete Main
Default           : Yes
Forced           : No

Text
ID             : 3
Format           : UTF-8
Codec ID          : S_TEXT/UTF8
Codec ID/Info        : UTF-8 Plain Text
Duration          : 1 h 56 min
Bit rate          : 64 b/s
Count of elements      : 1593
Stream size         : 54.6 KiB (0%)
Language          : Polish
Default           : Yes
Forced           : No

Lista plików Show/Hide [Pokaż/Ukryj]
Trackery Show/Hide[Pokaż/Ukryj trackery]
Podobne Pliki

Komentarze
Dodaj komentarz

Brak komentarzy!