Kategorie
Ranking
RSS
Hostmark

vps z directadmin
Statystyki
Użytkowników:
Zarejestrowanych wczoraj:
Zarejestrowanych dzisiaj:
Torrentów:
Dodanych wczoraj:
Dodanych dzisiaj:
Warezów:
Dodanych wczoraj:
Dodanych dzisiaj:
130,996
43
4
233,657
162
18
20,399
0
0
Ostatnie 30
Popularne
w Sierpniu
==Torrent==
Kategoria: Filmy x264/h264 » Dramat

Dodał: vantablack
Data dodania:
2021-07-22 12:09:28
Rozmiar: 2.06 GB
Seedów: 123
Peerów: 0

Pobrano: 54 razy
Kondycja:







Czarnobyl 1986 / Chernobyl / Chernobyl Abyss *2021* [540p] [NF] [WEBRip] [x264] [DDP5.1] [Lektor & Napisy PL] [vantablack]



Produkcja: Rosja
Gatunek: Dramat
Premiera: 15 kwietnia 2021 (świat)
Reżyseria: Danila Kozlovskiy
Scenariusz: Elena Ivanova, Aleksey Kazakov



Historia bohaterskiego strażaka, który pracował przy likwidowaniu szkód spowodowanych katastrofą jądrową.



★Danila Kozlovskiy .... Firefighter Alexey Karpushin
★Filipp Avdeev .... Engineer Valera
★Nikolay Kozak .... Military diver Boris
★Artur Beschastny .... Stysin
★Anton Shwartz .... Soldier
★Samvel Tadevosian .... Firefighter Tigran



Video
ID : 1
Format : AVC
Format/Info : Advanced Video Codec
Format profile : High@L3.1
Format settings : CABAC / 4 Ref Frames
Format settings, CABAC : Yes
Format settings, Reference fra : 4 frames
Codec ID : avc1
Codec ID/Info : Advanced Video Coding
Duration : 2 h 16 min
Bit rate : 881 kb/s
Width : 960 pixels
Height : 540 pixels
Display aspect ratio : 16:9
Frame rate mode : Variable
Frame rate : 24.000 FPS
Minimum frame rate : 24.000 FPS
Maximum frame rate : 90 000.000 FPS
Color space : YUV
Chroma subsampling : 4:2:0
Bit depth : 8 bits
Scan type : Progressive
Bits/(Pixel*Frame) : 0.071
Stream size : 858 MiB (41%)
Codec configuration box : avcC

Audio #1
ID : 2
Format : E-AC-3
Format/Info : Enhanced AC-3
Commercial name : Dolby Digital Plus
Codec ID : ec-3
Duration : 2 h 16 min
Bit rate mode : Constant
Bit rate : 640 kb/s
Channel(s) : 6 channels
Channel layout : L R C LFE Ls Rs
Sampling rate : 48.0 kHz
Frame rate : 31.250 FPS (1536 SPF)
Compression mode : Lossy
Stream size : 624 MiB (30%)
Language : Polish
Service kind : Complete Main
Default : Yes
Alternate group : 1

Audio #2
ID : 3
Format : E-AC-3
Format/Info : Enhanced AC-3
Commercial name : Dolby Digital Plus
Codec ID : ec-3
Duration : 2 h 16 min
Bit rate mode : Constant
Bit rate : 640 kb/s
Channel(s) : 6 channels
Channel layout : L R C LFE Ls Rs
Sampling rate : 48.0 kHz
Frame rate : 31.250 FPS (1536 SPF)
Compression mode : Lossy
Stream size : 624 MiB (30%)
Language : Russian
Service kind : Complete Main
Default : Yes
Alternate group : 2

Trailer
Lista plików Show/Hide [Pokaż/Ukryj]
Trackery Show/Hide[Pokaż/Ukryj trackery]
Podobne Pliki

Komentarze
Dodaj komentarz

Brak komentarzy!