Kategorie
Ranking
RSS
Hostmark

vps z directadmin
Statystyki
Użytkowników:
Zarejestrowanych wczoraj:
Zarejestrowanych dzisiaj:
Torrentów:
Dodanych wczoraj:
Dodanych dzisiaj:
Warezów:
Dodanych wczoraj:
Dodanych dzisiaj:
130,996
43
4
233,662
162
23
20,399
0
0
Ostatnie 30
Popularne
w Sierpniu
==Torrent==
Kategoria: Filmy x264/h264 » Animowany

Dodał: vantablack
Data dodania:
2021-07-22 12:19:26
Rozmiar: 1.82 GB
Seedów: 69
Peerów: 144

Pobrano: 9 razy
Kondycja:







Kung Fu Panda 3 *2016* [540p] [NF] [WEBRip] [x264] [DDP5.1] [Dubbing & Napisy PL] [vantablack]



Produkcja: Chiny, USA
Gatunek: Animacja, Familijny, Komedia, Przygodowy
Premiera: 16 stycznia 2016 (świat)
Reżyseria: Alessandro Carloni
Scenariusz: Jonathan Aibel, Glenn Berger



Po spotyka swego dawno zaginionego ojca i obaj wyruszają do sekretnej krainy pand, gdzie poznają nowych, przezabawnych bohaterów. Gdy nadprzyrodzony złoczyńca Kai zaczyna pustoszyć całe Chiny, pokonując wszystkich mistrzów kung fu, Po musi dokonać niemożliwego - wytrenować całą wioskę swych rozbrykanych, niezdarnych współbraci, by utworzyli drużynę niepokonanych Kung Fu Pand!



★ Jack Black .... Po (głos)
★ Bryan Cranston .... Li (głos)
★ Dustin Hoffman .... Shifu (głos)
★ Angelina Jolie .... Tygrysica (głos)
★ J.K. Simmons .... Kai (głos)
★ Jackie Chan .... Małpa (głos)
★ Seth Rogen .... Modliszka (głos)
★ Lucy Liu .... Żmija (głos)



Video
ID               : 1
Format             : AVC
Format/Info          : Advanced Video Codec
Format profile         : High@L3.1
Format settings        : CABAC / 4 Ref Frames
Format settings, CABAC     : Yes
Format settings, Reference fra : 4 frames
Codec ID            : avc1
Codec ID/Info         : Advanced Video Coding
Duration            : 1 h 34 min
Bit rate mode         : Variable
Bit rate            : 1 454 kb/s
Maximum bit rate        : 10 000 kb/s
Width             : 960 pixels
Height             : 540 pixels
Display aspect ratio      : 16:9
Frame rate mode        : Variable
Frame rate           : 23.976 (24000/1001) FPS
Minimum frame rate       : 11.987 FPS
Maximum frame rate       : 90 000.000 FPS
Color space          : YUV
Chroma subsampling       : 4:2:0
Bit depth           : 8 bits
Scan type           : Progressive
Bits/(Pixel*Frame)       : 0.117
Stream size          : 987 MiB (53%)


Audio #1
ID               : 2
Format             : E-AC-3
Format/Info          : Enhanced AC-3
Commercial name        : Dolby Digital Plus
Codec ID            : ec-3
Duration            : 1 h 34 min
Bit rate mode         : Constant
Bit rate            : 640 kb/s
Channel(s)           : 6 channels
Channel layout         : L R C LFE Ls Rs
Sampling rate         : 48.0 kHz
Frame rate           : 31.250 FPS (1536 SPF)
Compression mode        : Lossy
Stream size          : 435 MiB (23%)
Language            : Polish
Service kind          : Complete Main
Default            : Yes
Alternate group        : 1

Audio #2
ID               : 3
Format             : E-AC-3
Format/Info          : Enhanced AC-3
Commercial name        : Dolby Digital Plus
Codec ID            : ec-3
Duration            : 1 h 34 min
Bit rate mode         : Constant
Bit rate            : 640 kb/s
Channel(s)           : 6 channels
Channel layout         : L R C LFE Ls Rs
Sampling rate         : 48.0 kHz
Frame rate           : 31.250 FPS (1536 SPF)
Compression mode        : Lossy
Stream size          : 435 MiB (23%)
Language            : English
Service kind          : Complete Main
Default            : Yes
Alternate group        : 2

Trailer
Lista plików Show/Hide [Pokaż/Ukryj]
Trackery Show/Hide[Pokaż/Ukryj trackery]
Podobne Pliki

Komentarze
Dodaj komentarz

Brak komentarzy!