Kategorie
Ranking
RSS
Hostmark

vps z directadmin
Statystyki
Użytkowników:
Zarejestrowanych wczoraj:
Zarejestrowanych dzisiaj:
Torrentów:
Dodanych wczoraj:
Dodanych dzisiaj:
Warezów:
Dodanych wczoraj:
Dodanych dzisiaj:
130,996
43
4
233,661
162
22
20,399
0
0
Ostatnie 30
Popularne
w Sierpniu
==Torrent==
Kategoria: Filmy x264/h264 » Animowany

Dodał: vantablack
Data dodania:
2021-07-22 12:31:15
Rozmiar: 2.15 GB
Seedów: 174
Peerów: 153

Pobrano: 92 razy
Kondycja:







Łowcy trolli: Przebudzenie tytanów / Trollhunters: Rise of the Titans *2021* [540p] [NF] [WEBRip] [x264] [DDP5.1] [Dubbing & Napisy PL] [vantablack]



Produkcja: USA
Gatunek: Animacja, Przygodowy
Premiera: 21 lipca 2021 (świat)
Reżyseria: Andrew L. Schmidt
Scenariusz: Array



Po wydarzeniach zaprezentowanych w trylogii "Opowieści z Arkadii" bohaterowie Arkadii muszą połączyć siły, aby ocalić ludzkość przed niegodziwym Mrocznym Zakonem, którego członkowie za pomocą czarnej i nieokiełznanej magii przywołują starożytnych tytanów grożących zniszczeniem świata.



★ Cheryl Hines .... Momblank (głos)
★ Nick Frost .... Stuart (głos)
★ Brian Blessed .... Charlemagne (głos)
★ Kelsey Grammer .... Blinky (głos)
★ Emile Hirsch .... Jim (głos)
★ James Hong .... Zong Shi (głos)
★ Jonathan Hyde .... Strickler (głos)



Video
ID               : 1
Format             : AVC
Format/Info          : Advanced Video Codec
Format profile         : High@L3.1
Format settings        : CABAC / 4 Ref Frames
Format settings, CABAC     : Yes
Format settings, Reference fra : 4 frames
Codec ID            : avc1
Codec ID/Info         : Advanced Video Coding
Duration            : 1 h 46 min
Bit rate            : 1 613 kb/s
Width             : 960 pixels
Height             : 540 pixels
Display aspect ratio      : 16:9
Frame rate mode        : Variable
Frame rate           : 23.976 FPS
Minimum frame rate       : 23.974 FPS
Maximum frame rate       : 90 000.000 FPS
Color space          : YUV
Chroma subsampling       : 4:2:0
Bit depth           : 8 bits
Scan type           : Progressive
Bits/(Pixel*Frame)       : 0.130
Stream size          : 1.20 GiB (56%)
Codec configuration box    : avcC

Audio #1
ID               : 2
Format             : E-AC-3
Format/Info          : Enhanced AC-3
Commercial name        : Dolby Digital Plus
Codec ID            : ec-3
Duration            : 1 h 46 min
Bit rate mode         : Constant
Bit rate            : 640 kb/s
Channel(s)           : 6 channels
Channel layout         : L R C LFE Ls Rs
Sampling rate         : 48.0 kHz
Frame rate           : 31.250 FPS (1536 SPF)
Compression mode        : Lossy
Stream size          : 487 MiB (22%)
Language            : Polish
Service kind          : Complete Main
Default            : Yes
Alternate group        : 1

Audio #2
ID               : 3
Format             : E-AC-3
Format/Info          : Enhanced AC-3
Commercial name        : Dolby Digital Plus
Codec ID            : ec-3
Duration            : 1 h 46 min
Bit rate mode         : Constant
Bit rate            : 640 kb/s
Channel(s)           : 6 channels
Channel layout         : L R C LFE Ls Rs
Sampling rate         : 48.0 kHz
Frame rate           : 31.250 FPS (1536 SPF)
Compression mode        : Lossy
Stream size          : 487 MiB (22%)
Language            : English
Service kind          : Complete Main
Default            : Yes
Alternate group        : 2

Trailer
Lista plików Show/Hide [Pokaż/Ukryj]
Trackery Show/Hide[Pokaż/Ukryj trackery]
Podobne Pliki

Komentarze
Dodaj komentarz

Brak komentarzy!