Kategorie
Ranking
RSS
Hostmark

vps z directadmin
Statystyki
Użytkowników:
Zarejestrowanych wczoraj:
Zarejestrowanych dzisiaj:
Torrentów:
Dodanych wczoraj:
Dodanych dzisiaj:
Warezów:
Dodanych wczoraj:
Dodanych dzisiaj:
130,996
43
4
233,663
162
24
20,399
0
0
Ostatnie 30
Popularne
w Sierpniu
==Torrent==
Kategoria: Filmy x264/h264 » Romans

Dodał: vantablack
Data dodania:
2021-07-22 12:43:50
Rozmiar: 1.52 GB
Seedów: 399
Peerów: 115

Pobrano: 15 razy
Kondycja:







Przyjaciel z dzieciństwa / This Little Love of Mine *2021* [480p] [NF] [WEBRip] [x264] [DDP5.1] [Lektor & Napisy PL] [vantablack]



Produkcja: Australia
Gatunek: Romans
Premiera: 6 kwietnia 2021 (świat)
Reżyseria: Christine Luby
Scenariusz: Georgia Harrison



Prawniczka-pracoholiczka próbuje przekonać kolegę z dzieciństwa, aby przejął rodzinną firmę. Gdy dawne uczucia odżywają, zaczynają przeszkadzać w interesach.



★ Saskia Hampele .... Laura
★ Liam McIntyre .... Chip
★ Lynn Gilmartin .... Gem
★ Craig Horner .... Owen
★ Monette Lee .... Fiona
★ Lawrence Ola .... Karavi
★ Martin Portus .... Graham
★ Sophie Tilson .... Olivia



Video
ID               : 1
Format             : AVC
Format/Info          : Advanced Video Codec
Format profile         : High@L3
Format settings        : CABAC / 4 Ref Frames
Format settings, CABAC     : Yes
Format settings, Reference fra : 4 frames
Codec ID            : avc1
Codec ID/Info         : Advanced Video Coding
Duration            : 1 h 31 min
Bit rate            : 1 084 kb/s
Width             : 720 pixels
Height             : 480 pixels
Display aspect ratio      : 16:9
Original display aspect ratio : 3:2
Frame rate mode        : Variable
Frame rate           : 23.976 FPS
Minimum frame rate       : 23.974 FPS
Maximum frame rate       : 90 000.000 FPS
Color space          : YUV
Chroma subsampling       : 4:2:0
Bit depth           : 8 bits
Scan type           : Progressive
Bits/(Pixel*Frame)       : 0.131
Stream size          : 712 MiB (46%)
Codec configuration box    : avcC

Audio #1
ID               : 2
Format             : E-AC-3
Format/Info          : Enhanced AC-3
Commercial name        : Dolby Digital Plus
Codec ID            : ec-3
Duration            : 1 h 31 min
Bit rate mode         : Constant
Bit rate            : 640 kb/s
Channel(s)           : 6 channels
Channel layout         : L R C LFE Ls Rs
Sampling rate         : 48.0 kHz
Frame rate           : 31.250 FPS (1536 SPF)
Compression mode        : Lossy
Stream size          : 421 MiB (27%)
Language            : English
Service kind          : Complete Main
Default            : Yes
Alternate group        : 1

Audio #2
ID               : 3
Format             : E-AC-3
Format/Info          : Enhanced AC-3
Commercial name        : Dolby Digital Plus
Codec ID            : ec-3
Duration            : 1 h 31 min
Bit rate mode         : Constant
Bit rate            : 640 kb/s
Channel(s)           : 6 channels
Channel layout         : L R C LFE Ls Rs
Sampling rate         : 48.0 kHz
Frame rate           : 31.250 FPS (1536 SPF)
Compression mode        : Lossy
Stream size          : 421 MiB (27%)
Language            : Polish
Service kind          : Complete Main
Default            : Yes
Alternate group        : 2

Trailer
Lista plików Show/Hide [Pokaż/Ukryj]
Trackery Show/Hide[Pokaż/Ukryj trackery]
Podobne Pliki

Komentarze
Dodaj komentarz

Brak komentarzy!