Kategorie
Ranking
RSS
Hostmark

vps z directadmin
Statystyki
Użytkowników:
Zarejestrowanych wczoraj:
Zarejestrowanych dzisiaj:
Torrentów:
Dodanych wczoraj:
Dodanych dzisiaj:
Warezów:
Dodanych wczoraj:
Dodanych dzisiaj:
137,708
57
50
251,127
214
170
21,305
13
6
Ostatnie 30
Popularne
w Grudniu
==Torrent==
Kategoria: Filmy x264/h264 » Dramat

Dodał: vantablack
Data dodania:
2021-11-25 10:45:28
Rozmiar: 1.64 GB
Seedów: 41
Peerów: 96

Pobrano: 15 razy
Kondycja:







Colonia *2015* [540p] [NF] [WEBRip] [DDP5.1] [x264] [Lektor & Napisy PL] [ETeam-vantablack]



Produkcja: Francja, Luksemburg, Niemcy, Wielka Brytania
Gatunek: Dramat
Premiera: 13 września 2015 (świat)
Reżyseria: Florian Gallenberger
Scenariusz: Florian Gallenberger, Torsten Wenzel



Akcja rozgrywa się w latach 70. XX wieku. Młoda stewardessa Lena (Emma Watson) wiedzie spokojne życie u boku swojego chłopaka Daniela (Daniel Brühl). Wszystko się jednak zmienia, kiedy mężczyzna zostaje pojmany i trafia do Colonia Dignidad, komuny założonej przez Paula Schäfera (Michael Nyqvist). Zrozpaczona kobieta postanawia uwolnić swojego ukochanego.



★ Emma Watson .... Lena
★ Daniel Brühl .... Daniel
★ Michael Nyqvist .... Paul Schäfer
★ Vicky Krieps .... Ursel
★ Martin Wuttke .... Niels Biedermann
★ Richenda Carey .... Gisela
★ August Zirner .... Niemiecki ambasador
★ Jeanne Werner .... Doro



Video
ID               : 1
Format             : AVC
Format/Info          : Advanced Video Codec
Format profile         : High@L3.1
Format settings        : CABAC / 4 Ref Frames
Format settings, CABAC     : Yes
Format settings, Reference fra : 4 frames
Codec ID            : avc1
Codec ID/Info         : Advanced Video Coding
Duration            : 1 h 50 min
Bit rate mode         : Variable
Bit rate            : 838 kb/s
Maximum bit rate        : 10 000 kb/s
Width             : 960 pixels
Height             : 540 pixels
Display aspect ratio      : 16:9
Frame rate mode        : Variable
Frame rate           : 23.976 (24000/1001) FPS
Minimum frame rate       : 11.987 FPS
Maximum frame rate       : 90 000.000 FPS
Color space          : YUV
Chroma subsampling       : 4:2:0
Bit depth           : 8 bits
Scan type           : Progressive
Bits/(Pixel*Frame)       : 0.067
Stream size          : 661 MiB (39%)

Audio #1
ID               : 2
Format             : E-AC-3
Format/Info          : Enhanced AC-3
Commercial name        : Dolby Digital Plus
Codec ID            : ec-3
Duration            : 1 h 50 min
Bit rate mode         : Constant
Bit rate            : 640 kb/s
Channel(s)           : 6 channels
Channel layout         : L R C LFE Ls Rs
Sampling rate         : 48.0 kHz
Frame rate           : 31.250 FPS (1536 SPF)
Compression mode        : Lossy
Stream size          : 505 MiB (30%)
Language            : English
Service kind          : Complete Main
Default            : Yes
Alternate group        : 1

Audio #2
ID               : 3
Format             : E-AC-3
Format/Info          : Enhanced AC-3
Commercial name        : Dolby Digital Plus
Codec ID            : ec-3
Duration            : 1 h 50 min
Bit rate mode         : Constant
Bit rate            : 640 kb/s
Channel(s)           : 6 channels
Channel layout         : L R C LFE Ls Rs
Sampling rate         : 48.0 kHz
Frame rate           : 31.250 FPS (1536 SPF)
Compression mode        : Lossy
Stream size          : 505 MiB (30%)
Language            : Polish
Service kind          : Complete Main
Default            : Yes
Alternate group        : 2

Trailer
Lista plików Show/Hide [Pokaż/Ukryj]
Trackery Show/Hide[Pokaż/Ukryj trackery]
Podobne Pliki

Komentarze
Dodaj komentarz

Brak komentarzy!