Kategorie
Ranking
RSS
Hostmark

vps z directadmin
Statystyki
Użytkowników:
Zarejestrowanych wczoraj:
Zarejestrowanych dzisiaj:
Torrentów:
Dodanych wczoraj:
Dodanych dzisiaj:
Warezów:
Dodanych wczoraj:
Dodanych dzisiaj:
137,703
57
45
251,125
214
168
21,305
13
6
Ostatnie 30
Popularne
w Grudniu
==Torrent==
Kategoria: Filmy x264/h264 » Wojenny

Dodał: vantablack
Data dodania:
2021-11-25 10:53:30
Rozmiar: 1.52 GB
Seedów: 51
Peerów: 95

Pobrano: 9 razy
Kondycja:







Jarhead 3: Oblężenie / Jarhead 3: The Siege *2016* [540p] [NF] [WEBRip] [DDP5.1] [x264] [Lektor & Napisy PL] [ETeam-vantablack]



Produkcja: USA
Gatunek: Dramat, Wojenny
Premiera: 7 lutego 2016 (świat)
Reżyseria: William Kaufman
Scenariusz: Chad Law, Michael D. Weiss



Wyznaczony do ochrony wydawałoby się bezpiecznej Ambasady USA gdzieś na Bliskim Wschodzie, Evan Albright (Charlie Weber) - kapral doborowego oddziału piechoty morskiej – nie myślał, że jedzie na wojnę. Tymczasem kiedy uzbrojona po zęby grupa dokonuje niespodziewanego zamachu na informatora Ambasady, oddział Albrighta zostaje całkowicie zaskoczony. Zdziesiątkowani i pozbawieni broni żołnierze, wyznaczeni do pokojowej misji, stają w obliczu najprawdziwszej wojny. Wobec zagrożenia narodowego bezpieczeństwa narasta międzynarodowy kryzys - o tym właśnie opowiada interesujący film Williama Kaufmana z udziałem  Dennisa Haysberta oraz Scotta Adkinsa.



★ Charlie Weber .... Evan Albright
★ Scott Adkins .... Gunny Raines
★ Tom Ainsley .... Hansen
★ Erik Valdez .... Lopez
★ Dante Basco .... Blake
★ Dennis Haysbert .... Major Lincoln
★ Sasha Jackson .... Olivia Winston
★ Joe Corrigall .... Stamper



Video
ID               : 1
Format             : AVC
Format/Info          : Advanced Video Codec
Format profile         : High@L3.1
Format settings        : CABAC / 4 Ref Frames
Format settings, CABAC     : Yes
Format settings, Reference fra : 4 frames
Codec ID            : avc1
Codec ID/Info         : Advanced Video Coding
Duration            : 1 h 28 min
Bit rate mode         : Variable
Bit rate            : 1 154 kb/s
Maximum bit rate        : 10 000 kb/s
Width             : 960 pixels
Height             : 540 pixels
Display aspect ratio      : 16:9
Frame rate mode        : Variable
Frame rate           : 23.976 (24000/1001) FPS
Minimum frame rate       : 11.987 FPS
Maximum frame rate       : 90 000.000 FPS
Color space          : YUV
Chroma subsampling       : 4:2:0
Bit depth           : 8 bits
Scan type           : Progressive
Bits/(Pixel*Frame)       : 0.093
Stream size          : 735 MiB (47%)

Audio #1
ID               : 2
Format             : E-AC-3
Format/Info          : Enhanced AC-3
Commercial name        : Dolby Digital Plus
Codec ID            : ec-3
Duration            : 1 h 29 min
Bit rate mode         : Constant
Bit rate            : 640 kb/s
Channel(s)           : 6 channels
Channel layout         : L R C LFE Ls Rs
Sampling rate         : 48.0 kHz
Frame rate           : 31.250 FPS (1536 SPF)
Compression mode        : Lossy
Stream size          : 408 MiB (26%)
Language            : English
Service kind          : Complete Main
Default            : Yes
Alternate group        : 1

Audio #2
ID               : 3
Format             : E-AC-3
Format/Info          : Enhanced AC-3
Commercial name        : Dolby Digital Plus
Codec ID            : ec-3
Duration            : 1 h 29 min
Bit rate mode         : Constant
Bit rate            : 640 kb/s
Channel(s)           : 6 channels
Channel layout         : L R C LFE Ls Rs
Sampling rate         : 48.0 kHz
Frame rate           : 31.250 FPS (1536 SPF)
Compression mode        : Lossy
Stream size          : 408 MiB (26%)
Language            : Polish
Service kind          : Complete Main
Default            : Yes
Alternate group        : 2

Trailer
Lista plików Show/Hide [Pokaż/Ukryj]
Trackery Show/Hide[Pokaż/Ukryj trackery]
Podobne Pliki

Komentarze
Dodaj komentarz

Brak komentarzy!