Kategorie
Ranking
RSS
Hostmark

vps z directadmin
Statystyki
Użytkowników:
Zarejestrowanych wczoraj:
Zarejestrowanych dzisiaj:
Torrentów:
Dodanych wczoraj:
Dodanych dzisiaj:
Warezów:
Dodanych wczoraj:
Dodanych dzisiaj:
137,708
57
50
251,128
214
171
21,305
13
6
Ostatnie 30
Popularne
w Grudniu
==Torrent==
Kategoria: Filmy x264/h264 » Komedia kryminalna

Dodał: vantablack
Data dodania:
2021-11-25 11:01:13
Rozmiar: 1.71 GB
Seedów: 50
Peerów: 152

Pobrano: 11 razy
Kondycja:







Agent i pół / Central Intelligence *2016* [540p] [NF] [WEBRip] [DDP5.1] [x264] [Lektor & Napisy PL] [ETeam-vantablack]



Produkcja: USA
Gatunek: Komedia kryminalna
Premiera: 10 czerwca 2016 (świat)
Reżyseria: Rawson Marshall Thurber
Scenariusz: Ike Barinholtz, David Stassen



Życie Boba (Dwayne Johnson) nie było usłane różami, w szkole był typowym geekiem, otyłym, wyśmiewanym i wyszydzanym, ale od tego czasu zmieniło się wszystko. Teraz Bob jest agentem CIA i wygląda jak... Dwayne Johnson. Spotkanie absolwentów szkoły jest okazją do wciągnięcia "złotego chłopca" z czasów szkoły, Calvina (Hart), w ściśle tajną sprawę, nad którą pracuje Bob. Calvin tymczasem zamienił się w znudzonego życiem księgowego, który tęskni za dniami chwały, kiedy kochały się w nim wszystkie dziewczyny, a chłopcy chcieli być taki jak on... Teraz życie Calvina zmieni się diametralnie, trafi w sam środek strzelanin, pościgów samochodowych, niebezpiecznych gangsterów i mafijnych porachunków, których... panicznie się boi.



★ Dwayne Johnson .... Bob Stone
★ Kevin Hart .... Calvin Joyner
★ Amy Ryan .... Agentka Pamela Harris
★ Danielle Nicolet .... Maggie
★ Jason Bateman .... Trevor
★ Aaron Paul .... Phil
★ Ryan Hansen .... Steve
★ Tim Griffin .... Agent Stan Mitchell



Video
ID               : 1
Format             : AVC
Format/Info          : Advanced Video Codec
Format profile         : High@L3.1
Format settings        : CABAC / 4 Ref Frames
Format settings, CABAC     : Yes
Format settings, Reference fra : 4 frames
Codec ID            : avc1
Codec ID/Info         : Advanced Video Coding
Duration            : 1 h 47 min
Bit rate mode         : Variable
Bit rate            : 992 kb/s
Maximum bit rate        : 10 000 kb/s
Width             : 960 pixels
Height             : 540 pixels
Display aspect ratio      : 16:9
Frame rate mode        : Variable
Frame rate           : 23.976 (24000/1001) FPS
Minimum frame rate       : 11.987 FPS
Maximum frame rate       : 90 000.000 FPS
Color space          : YUV
Chroma subsampling       : 4:2:0
Bit depth           : 8 bits
Scan type           : Progressive
Bits/(Pixel*Frame)       : 0.080
Stream size          : 763 MiB (44%)

Audio #1
ID               : 2
Format             : E-AC-3
Format/Info          : Enhanced AC-3
Commercial name        : Dolby Digital Plus
Codec ID            : ec-3
Duration            : 1 h 47 min
Bit rate mode         : Constant
Bit rate            : 640 kb/s
Channel(s)           : 6 channels
Channel layout         : L R C LFE Ls Rs
Sampling rate         : 48.0 kHz
Frame rate           : 31.250 FPS (1536 SPF)
Compression mode        : Lossy
Stream size          : 493 MiB (28%)
Language            : Polish
Service kind          : Complete Main
Default            : Yes
Alternate group        : 1

Audio #2
ID               : 3
Format             : E-AC-3
Format/Info          : Enhanced AC-3
Commercial name        : Dolby Digital Plus
Codec ID            : ec-3
Duration            : 1 h 47 min
Bit rate mode         : Constant
Bit rate            : 640 kb/s
Channel(s)           : 6 channels
Channel layout         : L R C LFE Ls Rs
Sampling rate         : 48.0 kHz
Frame rate           : 31.250 FPS (1536 SPF)
Compression mode        : Lossy
Stream size          : 493 MiB (28%)
Language            : English
Service kind          : Complete Main
Default            : Yes
Alternate group        : 2

Trailer
Lista plików Show/Hide [Pokaż/Ukryj]
Trackery Show/Hide[Pokaż/Ukryj trackery]
Podobne Pliki

Komentarze
Dodaj komentarz

Brak komentarzy!