Kategorie
Ranking
RSS
Hostmark

vps z directadmin
Statystyki
Użytkowników:
Zarejestrowanych wczoraj:
Zarejestrowanych dzisiaj:
Torrentów:
Dodanych wczoraj:
Dodanych dzisiaj:
Warezów:
Dodanych wczoraj:
Dodanych dzisiaj:
137,703
57
45
251,125
214
168
21,305
13
6
Ostatnie 30
Popularne
w Grudniu
==Torrent==
Kategoria: Filmy x264/h264 » Komedia

Dodał: vantablack
Data dodania:
2021-11-25 11:07:53
Rozmiar: 1.79 GB
Seedów: 26
Peerów: 55

Pobrano: 4 razy
Kondycja:







Baby Driver *2017* [540p] [NF] [WEBRip] [DDP5.1] [x264] [Lektor & Napisy PL] [ETeam-vantablack]



Produkcja: USA, Wielka Brytania
Gatunek: Komedia, Akcja
Premiera: 11 marca 2017 (świat)
Reżyseria: Edgar Wright
Scenariusz: Edgar Wright



Utalentowanego młodego kierowcę (Ansel Elgort), który zarabia na życie udziałem w napadach, przez życie prowadzi muzyka. To ona pomaga mu być najlepszym w tym, co robi. Kiedy poznaje dziewczynę swych marzeń (Lily James), postanawia porzucić przestępczą przeszłość i zacząć żyć normalnie. Zmuszony przez bossa mafijnego (Kevin Spacey), dla którego pracuje, do udziału w z góry skazanym na niepowodzenie skoku, ryzykuje utratą wszystkiego, co dla niego najważniejsze – miłości, wolności i muzyki.



★ Ansel Elgort .... Baby
★ Kevin Spacey .... Doc
★ Lily James .... Debora
★ Jon Hamm .... Buddy
★ Jamie Foxx .... Bats
★ Jon Bernthal .... Griff
★ Eiza González .... Darling
★ Flea .... Eddie



Video
ID               : 1
Format             : AVC
Format/Info          : Advanced Video Codec
Format profile         : High@L3.1
Format settings        : CABAC / 4 Ref Frames
Format settings, CABAC     : Yes
Format settings, Reference fra : 4 frames
Codec ID            : avc1
Codec ID/Info         : Advanced Video Coding
Duration            : 1 h 52 min
Bit rate mode         : Variable
Bit rate            : 987 kb/s
Maximum bit rate        : 10 000 kb/s
Width             : 960 pixels
Height             : 540 pixels
Display aspect ratio      : 16:9
Frame rate mode        : Variable
Frame rate           : 23.976 (24000/1001) FPS
Minimum frame rate       : 11.987 FPS
Maximum frame rate       : 90 000.000 FPS
Color space          : YUV
Chroma subsampling       : 4:2:0
Bit depth           : 8 bits
Scan type           : Progressive
Bits/(Pixel*Frame)       : 0.079
Stream size          : 798 MiB (43%)

Audio #1
ID               : 2
Format             : E-AC-3
Format/Info          : Enhanced AC-3
Commercial name        : Dolby Digital Plus
Codec ID            : ec-3
Duration            : 1 h 53 min
Bit rate mode         : Constant
Bit rate            : 640 kb/s
Channel(s)           : 6 channels
Channel layout         : L R C LFE Ls Rs
Sampling rate         : 48.0 kHz
Frame rate           : 31.250 FPS (1536 SPF)
Compression mode        : Lossy
Stream size          : 517 MiB (28%)
Language            : Polish
Service kind          : Complete Main
Default            : Yes
Alternate group        : 1

Audio #2
ID               : 3
Format             : E-AC-3
Format/Info          : Enhanced AC-3
Commercial name        : Dolby Digital Plus
Codec ID            : ec-3
Duration            : 1 h 53 min
Bit rate mode         : Constant
Bit rate            : 640 kb/s
Channel(s)           : 6 channels
Channel layout         : L R C LFE Ls Rs
Sampling rate         : 48.0 kHz
Frame rate           : 31.250 FPS (1536 SPF)
Compression mode        : Lossy
Stream size          : 517 MiB (28%)
Language            : English
Service kind          : Complete Main
Default            : Yes
Alternate group        : 2

Trailer
Lista plików Show/Hide [Pokaż/Ukryj]
Trackery Show/Hide[Pokaż/Ukryj trackery]
Podobne Pliki

Komentarze
Dodaj komentarz

Brak komentarzy!