Kategorie
Ranking
RSS
Google+
Statystyki
Użytkowników:
Zarejestrowanych wczoraj:
Zarejestrowanych dzisiaj:
Torrentów:
Dodanych wczoraj:
Dodanych dzisiaj:
Warezów:
Dodanych wczoraj:
Dodanych dzisiaj:
116,030
66
47
176,220
150
162
16,855
0
0
Popularne
w Lipcu
Przeglądaj
<< Poprzednia      Następna >>
1 - 60 | 61 - 120 | 121 - 180 | ... | 175201 - 175260 | 175261 - 175320 | 175321 - 175322
==Torrent==
Kategoria: Muzyka » Blues

Dodał: viola62
Data dodania:
2020-07-10 17:56:38
Rozmiar: 391.55 MB Seedów: 6
Peerów: 0

Pobrano: 2 razy

Komentarze: 0


...( Info )...

Artist: Louis Armstrong
Album: Simply ... Satchmo! (Remastered)
Year: 2020
Genre: Jazz
Quality: Mp3 320 kbps

...( TrackList )...

CD1

1. Cliff Dixon - Where the Blues were born in New Orleans
2. Thomas _Fats_ Waller - Ain't misbehavin'
3. Joe Burke - Pennies from Heaven_ The skeleton in the cupboard
4. Gus Kahn - Hurdy Gurdy Man
5. Louis Armstrong - The Three-Penny-Opera_ Mack the Knife
6. Louis Armstrong - Back O'Town Blues
7. Billy Moore - Fifty-Fifty-Blues
8. Leroy Carr - Blues for yesterday
9. Traditional - When the saints go marchin' in
10. Traditional - Going to shout all over God's heaven
11. Traditional - Nobody knows the trouble I have seen
12. Robert MacGimsey - Shadrack
13. Robert MacGimsey - Jonah and the whale
14. Traditional - Go down, Moses
15. Traditional - Didn't It rain
16. Traditional - Down by the riverside
17. Traditional - Sometimes I feel like a motherless child
18. Richard Huey - Rock my soul
19. Rosetta Tharpe -
[...]

»[Zobacz cały opis

==Torrent==
Kategoria: Programy » Narzędziowe

Dodał: tomasz62
Data dodania:
2020-07-10 17:40:21
Rozmiar: 47.00 MB Seedów: 0
Peerów: 0

Pobrano: 3 razy

Komentarze: 0


NIE AKTUALIZOWAĆ PROGRAMU !!!

Powód edycji: jądro od 10.07.2020 + aktualizacja bazy danych + nowy klucz

Kerish Doctor 2019 (Repack & Portable) to uniwersalne oprogramowanie przeznaczone do obsługi komputera, naprawy błędów rejestru, optymalizacji systemu i czyszczenia go z zanieczyszczeń, ochrony komputera przed wirusami, potencjalnych luk w zabezpieczeniach i kontroli ustawień zabezpieczeń.

Kluczowe cechy:

Korekta błędów rejestru i awarii systemu Windows w czasie rzeczywistym.
Optymalizacja prędkości systemu.
Optymalizacja ustawień Windows i usług systemowych.
Optymalizacja prędkości połączenia internetowego.
Zapewnia bezpieczeństwo systemu poprzez wyszukiwanie i niszczenie wirusów i innych złośliwych programów.
Czyszczenie dysków z „śmieci” cyfrowych - plików tymczasowych, które nie zostały usunięte.
Zmieniając litery dysków, poprawia wszystkie skróty, ustawienia i wpisy w rejestrze.
Wszystkie poprawki dotyczące plików są zapisywane w dzienniku poprawek, skąd można
[...]

»[Zobacz cały opis

==Torrent==
Kategoria: Filmy XviD/DivX » Komedia

Dodał: Dyyzio
Data dodania:
2020-07-10 16:35:08
Rozmiar: 1.97 GB Seedów: 13
Peerów: 295

Pobrano: 7 razy

Komentarze: 0


...( Info )...



reżyseria: Georges Lautner
scenariusz: Georges Lautner Albert Kantof
gatunek: Komedia
produkcja: Francja Włochy
premiera: 6 maja 1964 (świat)


..::(Opis)::..


Jacques wiąże się z piękną blondynką imieniem Rockie. Jej były chłopak Chips po wyjściu z więzienia planuje zemstę na swoim rywalu. W trakcie szamotaniny Jacques przypadkowo zabija Chipsa. Przerażony ukrywa go w futerale po kontrabasie i prosi o pomoc w pozbyciu się ciała swego kuzyna Jérôme'a. Okazuje się, że w marynarce Chipsa schowany był kupon z pokaźną wygraną z wyścigów konnych. Kupon chce zdobyć, również zakochany w Rockie, Jo Arengeot.

..::(Obsada)::..

Louis de Fun?s
Mireille Darc
Michel Serrault
Jacqueline Rivi?re
Michel Dacquin
Simone Landry
Colette Régis
Malka Ribowska

..::(Dane Techniczne)::..

Format      : AVI at 3.065 kb/s
Length      : 1,97 GB for 1 h 32 min 4s 96 ms

Video #0     : MPEG-4 Visual at 2.862 kb/s
Aspect      : 1280 x 720 (
[...]

»[Zobacz cały opis

==Torrent==
Kategoria: Filmy XviD/DivX » Sci-Fi

Dodał: ADAM26
Data dodania:
2020-07-10 16:10:52
Rozmiar: 4.58 GB Seedów: 6
Peerów: 13

Pobrano: 6 razy

Komentarze: 0


Pobrałeś/aś podziękuj To nic nie kosztuje a Motywuje!!

...( Info )...

produkcja:USA
reżyseria:Michael Bay
scenariusz:Ehren Kruger
premiera:1 lipca 2011 (Polska) 23 czerwca 2011 (świat)
gatunek:Akcja Sci-Fi

..( O filmie )..

https://www.filmweb.pl/film/Transformers+3-2011-505976

...( Opis )...

Shia LaBeouf powraca jako Sam Witwicky w filmie "Transformers 3"! Przeszłość kryję tajemnice, a wydarzenia sprzed lat mają wpływy na to, co się dzieje teraz. Być może wrak statku kosmicznego znaleziony na Księżycu przyczyni się do tego, że Ziemia stanie na krawędzi wojny. Wojny tak wielkiej, że siła Transformersów będzie zbyt mała, by nas ocalić. Autoboty kontra Decepticony, dobro przeciw złu. I wcale nie jest powiedziane, że dobro zwycięży. Do ekipy znanej z poprzednich części Transformesów dołączyły nowe gwiazdy: John Malkovich, Patrick Dempsey oraz Frances McDormand. Film zobaczymy w oszałamiającej technologii 3D.

...( Obsada )...

Shia LaBeouf ....... Sam Witwicky
[...]

»[Zobacz cały opis

==Torrent==
Kategoria: Programy » Narzędziowe

Dodał: tomasz62
Data dodania:
2020-07-10 15:53:04
Rozmiar: 58.82 MB Seedów: 122
Peerów: 87

Pobrano: 9 razy

Komentarze: 0


...( Info )...

KLUCZ WAŻNY DO 27 MAJA 2021

AVG TuneUp to rozbudowany program do optymalizacji systemów operacyjnych Windows. Aplikacja pozwala przede wszystkim usuwać niepotrzebne pliki z dysku twardym oraz czyścić z błędnych wpisów rejestr systemowy. AVG TuneUp posiada prosty w obsłudze interfejs, a cały proces optymalizacji peceta wykonamy jednym przyciskiem.

OS - Windows 10, 8, 7 32/64-bit

==Torrent==
Kategoria: Filmy XviD/DivX » Dramat

Dodał: ADAM26
Data dodania:
2020-07-10 15:51:46
Rozmiar: 3.05 GB Seedów: 6
Peerów: 7

Pobrano: 6 razy

Komentarze: 0


Pobrałeś/aś podziękuj To nic nie kosztuje a Motywuje!!

...( Info )...

Produkcja: USA
Reżyseria: Martin Scorsese
Scenariusz: Richard Price
Premiera: 1986-12-31 (Polska), 1986-10-08 (Świat)
Gatunek: Dramat Sportowy

..( O filmie )..

https://www.filmweb.pl/film/Kolor+pieni%C4%99dzy-1986-1280

...( Opis )...

Eddie "Fast" Felson (Paul Newman), stary i doświadczony bilardzista, który już dawno wycofał się z branży, pewnego dnia spotyka godnego siebie ucznia, młodego i zdolnego Vincenta (Tom Cruise). Mężczyźni wyjeżdżają na tournee po knajpach, gdzie Eddie uczy Vincenta wszystkich znanych sobie sztuczek. Jednak po pewnym czasie między mistrzem i uczniem dochodzi do konfliktu, który doprowadza do tego, że na turnieju w Atlantic City stają przeciwko sobie.

...( Obsada )...

Paul Newman – Eddie Felson
Tom Cruise – Vincent Lauria
Mary Elizabeth Mastrantonio – Carmen
Helen Shaver – Janelle
John Turturro – Julian
Bill Cobbs – Orvis
Forest Whitaker – Amos

...( Dane
[...]

»[Zobacz cały opis

==Torrent==
Kategoria: Filmy XviD/DivX » Akcja

Dodał: Wilu75
Data dodania:
2020-07-10 15:20:57
Rozmiar: 1.37 GB Seedów: 1449
Peerów: 1282

Pobrano: 215 razy

Komentarze: 0


==================
...::: INFO :::...
==================
Tytuł: The Old Guard
Ocena: IMDB - 8.5/10 (15)
Produkcja: USA
Gatunek: Akcja, Fantasy
Czas trwania: 125 min.
Premiera: 10 lipca 2020 (świat)
Reżyseria: Gina Prince-Bythewood
Scenariusz: Greg Rucka

==================
...::: OPIS :::...
==================
Pod dowództwem wojowniczki imieniem Andy (Charlize Theron), sekretna grupa najemników, których nic nie jest w stanie zabić, od stuleci chroni świat śmiertelników. Kiedy zespół podejmuje się nowej misji ratunkowej i ich nadzwyczajne zdolności zostają nagle ujawnione, Andy i Nile (Kiki Layne), świeżo upieczony żołnierz w szeregach grupy, muszą wyeliminować zagrożenie ze strony ludzi, którzy za wszelką cenę chcą zawładnąć ich mocą i zarobić na tym fortunę.

====================
...::: OBSADA :::...
====================
Charlize Theron .... Andromache ze Scytii / Andy
KiKi Layne .... Nile Freeman
Marwan Kenzari .... Yusuf Al-Kaysani / Joe
Matthias Schoenaerts
[...]

»[Zobacz cały opis

==Torrent==
Kategoria: Muzyka » Pop

Dodał: depesz11
Data dodania:
2020-07-10 15:12:48
Rozmiar: 1.59 GB Seedów: 177
Peerów: 445

Pobrano: 11 razy

Komentarze: 0


...( Info )...

Wykonawca: Różni Artysci
Typ: Skłądanka
Gatunek: Rock, Pop, Synthpop
Rok: 2020
Okładka: Tak
Audio bitrate: 320kbps
Audio kodek: mp3
d-11

...( TrackList )...

1. Steve Miller Band - Abracadabra (7" Single Version) (3:41)
2. Toto - Africa (7" Radio Edit) (4:20)
3. ABC - All of My Heart (5:19)
4. Naked Eyes - Always Something There to Remind Me (3:39)
5. Squeeze - Annie Get Your Gun (3:25)
6. Kid Creole and the Coconuts - Annie, I'm Not Your Daddy (12" Single Version) (6:14)
7. Scritti Politti - Asylums in Jerusalem (3:15)
8. Roxy Music - Avalon (4:17)
9. Echo & the Bunnymen - The Back of Love (3:14)
10. The Pretenders - Back on the Chain Gang (3:52)
11. Roxy Music - More Than This (7" Single Version) (4:10)
12. Bucks Fizz - My Camera Never Lies (7" Single Version) (3:35)
13. Romeo Void - Never Say Never (7" Single Version) (3:27)
14. Gregory Isaacs - Night Nurse (12" Long Version) (6:57)
15. Japan - Nightporter (Album Version, 19 (6:59)
16. Pr
[...]

»[Zobacz cały opis

==Torrent==
Kategoria: Książki » AudioBook

Dodał: aarek68
Data dodania:
2020-07-10 14:45:49
Rozmiar: 721.61 MB Seedów: 10
Peerów: 4

Pobrano: 21 razy

Komentarze: 0


...( Info )...

Autor: Marcel Moss
Kategoria: kryminał, sensacja, thriller
Data wydania: 2020-01-29
Rozmiar: 721 MB
Czas: 08h 35m 18s
Bitrate: 192 kbps
Format: mp3
Język: polski
Czyta: Paulina Holtz, Michał Lesień-Głowacki, Kaja Walden, Julia Konarska, Maciej Kowalik, Zuzanna Galia, Jakub Wieczorek.

...( Opis )...

„Próbuję powstrzymać się od krzyku. Leżę pod kołdrą i udaję, że rozmowa sprzed chwili nie miała miejsca. To moje ostatnie sekundy wolności. Czy ten koszmar kiedyś się skończy?”

Ewa na co dzień jest szanowanym psychoterapeutą. Skrywa jednak mroczną tajemnicę, którą poza nią zna tylko jedna osoba.

Pewnego dnia kobieta dostaje na Instagramie wiadomość video od swojej byłej pacjentki, Martyny, która przebywa na leczeniu w szpitalu psychiatrycznym. Gdy odtwarza filmik, widzi sceny, o których wolałaby zapomnieć.

Tylko Martyna wie, co Ewa zrobiła przed laty. Teraz grozi, że upubliczni nagranie, jeżeli lekarka nie pomoże jej w rozwiązaniu sprawy głośnego mor
[...]

»[Zobacz cały opis

==Torrent==
Kategoria: Książki » AudioBook

Dodał: aarek68
Data dodania:
2020-07-10 14:31:02
Rozmiar: 802.71 MB Seedów: 50
Peerów: 160

Pobrano: 26 razy

Komentarze: 0


...( Info )...

Autor: Lee Child
Cykl: Jack Reacher (tom 12)
Tytuł oryginału: Nothing to Lose
Tłumacz: Bogusław Stawski
Kategoria: kryminał, sensacja, thriller
Data wydania: 2009-01-01
Rozmiar: 802 MB
Czas: 14h 33m 44s
Bitrate: 128 kbps
Format: mp3
Język; polski
Czyta: Andrzej Hausner

...( Opis )...

Reacher chciał tylko napić się kawy… Ale zamiast dzbanka wybornego płynu znalazł kłopoty…

Rozpacz i Nadzieja – dwa miasteczka połączone szosą wiodącą przez bezludne, pustynne tereny Kolorado. I przemierzający ją samotnie Jack Reacher, który chce tylko napić się kawy. Rozpacz okazuje się mało gościnnym miejscem; bez żadnego powodu czterech osiłków próbuje wyrzucić go z miasta, a policjanci odstawiają go do granicy stanu i grożą, że jeśli wróci, trafi do aresztu.

Nie wiedzą, że Reacherowi lepiej nie grozić. Tak samo, jak lepiej nie powstrzymywać go przed odkryciem czegoś, co ktoś wyraźnie chce ukryć. Zwłaszcza jeśli tym kimś są władze. Bo Reacher nie przepada za wł
[...]

»[Zobacz cały opis

==Torrent==
Kategoria: Filmy XviD/DivX » Akcja

Dodał: hytry1
Data dodania:
2020-07-10 14:27:35
Rozmiar: 3.02 GB Seedów: 1234
Peerów: 2422

Pobrano: 132 razy

Komentarze: 0


..::(Info)::..

*Kraj produkcji: USA 
*Gatunek filmu: Fantasy / Akcja 
*Data premiery: 10 lipca 2020 (świat) 
*Czas trwania filmu: 2 h 5 min 
*Reżyseria: Gina Prince-Bythewood 

..::(Opis)::..

Czwórka odwiecznych obrońców ludzkości, których śmierć się nie ima, odkrywa nową nieśmiertelną i mierzy się z przeciwnikiem zainteresowanym ich mocami.

..::(Obsada)::..

*Charlize Theron jako Andy
*KiKi Layne jako Nile
*Matthias Schoenaerts jako Booker
*Marwan Kenzari jako Joe

..::(Dane Techniczne)::..

Format      : AVI at 3.437 kb/s
Length      : 3,02 GB for 2 h 5 min 36s 704 ms

Video #0     : MPEG-4 Visual at 3.236 kb/s
Aspect      : 1280 x 720 (1.778) at 25.000 fps

Audio #0     : AC-3 at 192 kb/s
Infos       : 2 kanały, 48,0 kHz

==Torrent==
Kategoria: TV/Seriale » Komedia kryminalna

Dodał: raju
Data dodania:
2020-07-10 14:19:43
Rozmiar: 8.41 GB Seedów: 65
Peerów: 315

Pobrano: 24 razy

Komentarze: 0


...( Info )...
Gatunek: Komedia, Kryminał
Produkcja: USA
Data premiery serialu: 9.10.2008 r - Świat
Czas trwania odcinka około 44 min.
Reżyseria: Michael Katleman, Darnell Martin, Alex Zakrzewski
Scenariusz: Josh Appelbaum, André Nemec, Scott Rosenberg

https://www.filmweb.pl/serial/Life+on+Mars-2008-368926
https://www.imdb.com/title/tt0787490/
https://fdb.pl/film/70531-life-on-mars
https://naekranie.pl/seriale/life-on-mars-us

...( Opis )...
Sam Tyler, detektyw z Nowego Jorku, zostaje potrącony przez samochód i budzi się w roku 1973. Musi przystosować się do zupełnie nowej rzeczywistości i dowiedzieć się, co naprawdę się z nim stało...

...( Obsada )...
Jason O'Mara ... Sam Tyler
Harvey Keitel ... Gene Hunt
Gretchen Mol ... Annie Norris
Michael Imperioli ... Ray Carling
Lisa Bonet .... Maya Daniels
Jonathan Murphy ... Chris Skelton

...( Dane Techniczne )...
Na podstawie pierwszego odcinka

Format : AVI at 1 618 kb/s
Length : 500 MiB for 43 min 12 s

Vid
[...]

»[Zobacz cały opis

==Torrent==
Kategoria: Filmy XviD/DivX » Wojenny

Dodał: hytry1
Data dodania:
2020-07-10 13:45:50
Rozmiar: 1.16 GB Seedów: 185
Peerów: 952

Pobrano: 170 razy

Komentarze: 1


..::(Info)::..

*Kraj produkcji: USA 
*Gatunek filmu: Dramat / Wojenny 
*Data premiery: 10 lipca 2020 (świat) 
*Czas trwania filmu: 1 h 31 min 
*Reżyseria: Aaron Schneider 

..::(Opis)::..

We wczesnym okresie II wojny światowej kapitan Ernest Krause (Tom Hanks) dowodzi amerykańskim niszczycielem, który zabezpiecza konwój 37 alianckich statków. Okręty wojenne są zagrożone przez wilcze stada nazistowskich U-botów.

..::(Obsada)::..

*Tom Hanks jako kapitan Ernest Krause, dowódca USS Keeling
*Stephen Graham jako Charlie Cole, zastępca Krausa
*Rob Morgan jako George Cleveland, szef kuchni
*Elisabeth Shue jako Evelyn, zainteresowanie Ernesta

..::(Dane Techniczne)::..

Format      : AVI at 1.813 kb/s
Length      : 1,16 GB for 1 h 31 min 42s 432 ms

Video #0     : xvid at 1.607 kb/s
Aspect      : 720 x 400 (2.400) at 25.000 fps

Audio #0     : AC-3 at 192 kb/s
Infos       : 2 kanały, 48,0 kHz

==Torrent==
Kategoria: Filmy Blu-Ray/HD » Komedia kryminalna

Dodał: alE13
Data dodania:
2020-07-10 13:35:03
Rozmiar: 17.84 GB Seedów: 7
Peerów: 89

Pobrano: 8 razy

Komentarze: 0


...( Info )...

http://i.imgur.com/Y3o2Dx5.jpg

==============

http://i.imgur.com/tEKXWyV.jpg

http://www.imdb.com/title/tt0097253/
http://www.filmweb.pl/film/Deja+vu-1989-1164

Plik zawiera Sample.

reżyseria:   Juliusz Machulski
scenariusz:  Aleksandr Borodyanskiy / Juliusz Machulski
gatunek:    Komedia kryminalna
produkcja:   Polska / ZSRR
premiera:   18-04-1990
muzyka:    Krzesimir Dębski
czas:     01:44:36

...( Opis )...

During the Prohibition, Chicago mob send a hitman after a traitor. The only problem is that his traces lead to Odessa,
and no one hitman can overcome the hardcore Soviet bureaucracy.

Chicago 1925 roku, okres prohibicji. Mafioso Mick Nitsch zdradza swą "rodzinę" i informuje policję o transporcie alkoholu. Potem ucieka do ZSRR, kraju swoich przodków. Mafia dowiaduje się o tym i wydaje wyrok śmierci na zdrajcę. Zadanie to ma wykonać znakomity fachowiec polskiego pochodzenia, John Pollack. Odessa 1925, okres NEP - u
[...]

»[Zobacz cały opis

==Torrent==
Kategoria: Muzyka » Pop

Dodał: depesz11
Data dodania:
2020-07-10 13:34:08
Rozmiar: 1.30 GB Seedów: 322
Peerów: 373

Pobrano: 14 razy

Komentarze: 0


...( Info )...

Wykonawca: Różni Artysci
Typ: Składanka
Gatunek: Pop, Rock, Synthpop
Rok: 2020
Okładka: Tak
Audio bitrate: 320kbps
Audio kodek: mp3
d-11

...( TrackList )...


1. Genesis - Abacab (7" Single Version) (4:10)
2. The Jam - Absolute Beginners (2:48)
3. Ultravox - All Stood Still (4:23)
4. Siouxsie & the Banshees - Arabian Knights (3:08)
5. Modern Romance - Ay Ay Ay Ay Moosey (3:09)
6. Soft Cell - Bedsitter (3:29)
7. Kim Carnes - Bette Davis Eyes (3:42)
8. Blue Öyster Cult - Burnin' for You (7" Single Version) (3:43)
9. The J. Geils Band - Centerfold (3:35)
10. New Order - Ceremony (12" Version) (4:26)
11. Grace Jones - Pull Up to the Bumper (Original 1981 7" Single Edit) (3:39)
12. Japan - Quiet Life (7" Fade-Out Version, 1981) (3:51)
13. R.E.M. - Radio Free Europe (Original 1981 Hib-Tone 7" Single) (3:48)
14. Blondie - Rapture (Original 1981 UK 7" Single Mix) (4:57)
15. B-Movie - Remembrance Day (4:04)
16. Madness - The Return of the Los Palmas
[...]

»[Zobacz cały opis

==Torrent==
Kategoria: TV/Seriale » Sci-Fi

Dodał: raju
Data dodania:
2020-07-10 12:59:23
Rozmiar: 13.95 GB Seedów: 9
Peerów: 0

Pobrano: 7 razy

Komentarze: 0


...( Info )...
Gatunek: Fantasy, Sci-fi, Przygodowy
Produkcja: USA
Data premiery serialu: 19.03.2014 - Świat
Czas trwania odcinka około 42 min.
Reżyseria: Bharat Nalluri , P.J. Pesce , Milan Cheylov
Scenariusz: Jason Rothenberg

https://www.filmweb.pl/serial/The+100-2014-689083
https://www.imdb.com/title/tt2661044
https://fdb.pl/film/518788-the-100
https://naekranie.pl/seriale/the-100

...( Opis )...
97 lat temu nuklearna zagłada zniszczyła ludzką cywilizację na Ziemi. Przeżyło jedynie 400 osób, które przebywały w tym czasie w 12 stacjach kosmicznych na orbicie. W celu zapewnienia jak najlepszego przetrwania rasy ludzkiej, wszystkie stacje zostały połączone, by stworzyć "Arkę". Trzy generacje urodziły się w kosmosie, a populacja ludzka osiągnęła liczbę 4 000. Bezwzględni przywódcy stacji wprowadzili rygorystyczne zasady. Każdy z mieszkańców jest wnikliwie kontrolowany, zapasy są ściśle reglamentowane, a wszystkie, nawet najdrobniejsze przestępstwa są surowo karane. W pewn
[...]

»[Zobacz cały opis

==Torrent==
Kategoria: Filmy XviD/DivX » Horror

Dodał: hytry1
Data dodania:
2020-07-10 12:57:30
Rozmiar: 700.17 MB Seedów: 853
Peerów: 415

Pobrano: 84 razy

Komentarze: 0


..::(Info)::..

*Kraj produkcji: USA 
*Gatunek filmu: Horror, Thriller, Kryminał 
*Data premiery: 24.03.2020 - Świat 
*Czas trwania filmu: 81 min. 
*Reżyseria: Michael Caissie 

..::(Opis)::..

Rodzinka (tata, mama + trzy dorodne córy) wprowadza się do miasteczka. Zajmują stary dom po zmarłym właścicielu zidentyfikowanym jako seryjny morderca, zabitym w niejasnych okolicznościach kilka miesięcy wcześniej przez dzikie, niezidentyfikowane zwierzę. Już pierwszej nocy stają się celem szajki miejscowych oprychów zamierzających obrobić nowo zasiedlony dom i jego mieszkańców. Plany włamywaczy zostają pokrzyżowane przez nieoczekiwane wydarzenia. Po dokonaniu włamu wszystkich odcina w domu agresywne zwierzę grasujące wokół posiadłości. Jakby tego było mało na posesję zajeżdża radiowóz prowadzony przez miejscowego szeryfa (Thomas Jane). Zaczyna się noc podczas której dotychczasowi łowcy zamieniają się w zwierzynę łowną…

..::(Obsada)::..

*Katrina Bowden jako Juliet Delaney
*
[...]

»[Zobacz cały opis

==Torrent==
Kategoria: Filmy XviD/DivX » Akcja

Dodał: patriota123
Data dodania:
2020-07-10 12:40:06
Rozmiar: 2.72 GB Seedów: 57
Peerów: 43

Pobrano: 14 razy

Komentarze: 0


Pobrałeś/aś podziękuj To nic nie kosztuje a Motywuje!!

...( Info )...

Produkcja: USA, Wielka Brytania
Gatunek: Akcja, Sci-Fi
Premiera: 23 października 1998 (świat)
Reżyseria: Paul W.S. Anderson
Scenariusz: David Webb Peoples

https://www.filmweb.pl/film/Galaktyczny+wojownik-1998-55

...( Opis )...

Sierżant Todd (Kurt Russell), od dzieciństwa wychowywany brutalnymi metodami, to niezawodny, bezlitosny i pozbawiony wyższych uczuć żołnierz, który bierze udział w wielu bitwach. W końcu jednak wraz ze swoim oddziałem zostaje zastąpiony genetycznie zmodyfikowanymi żołnierzami. Nikomu niepotrzebny sierżant trafia pod opiekę miejscowej ludności, gdzie zaczyna uczyć się okazywać ludzkie emocje.

...( Obsada )...

★ Kurt Russell .... Sierżant Todd
★ Jason Scott Lee .... Caine 607
★ Connie Nielsen .... Sandra
★ Michael Chiklis .... Jimmy Pig
★ Jason Isaacs .... Pułkownik Mekum
★ Sean Pertwee .... Mace
★ Gary Busey .... Kapitan Church
★ Paul Dillon .... Slade

...( D
[...]

»[Zobacz cały opis

==Torrent==
Kategoria: TV/Seriale » Dokumentalny

Dodał: Jordan83
Data dodania:
2020-07-10 12:38:20
Rozmiar: 10.20 GB Seedów: 48
Peerów: 86

Pobrano: 1 razy

Komentarze: 0


...( Info )...

Produkcja: USA
Gatunek: Dokumentalny
Platforma: Netflix
Premiera: 10 lipiec 2020

...( Opis )...

Aktor Zac Efron podróżuje dookoła świata, poznając zdrowe i ekologiczne style życia. Towarzyszy mu Darin Olien, ekspert w dziedzinie odnowy biologicznej.

...( Dane Techniczne )...

Napisy wmuksowane należy wybrać w odtwarzaczu

Video
ID : 1
Format : AVC
Format/Info : Advanced Video Codec
Format profile : Main@L3.1
Format settings : CABAC / 3 Ref Frames
Format settings, CABAC : Yes
Format settings, Reference frames : 3 frames
Codec ID : V_MPEG4/ISO/AVC
Duration : 39 min 28 s
Bit rate mode : Variable
Bit rate : 4 420 kb/s
Maximum bit rate : 6 630 kb/s
Width : 1 280 pixels
Height : 720 pixels
Display aspect ratio : 16:9
Frame rate mode : Constant
Frame rate : 23.976 (24000/1001) FPS
Color space : YUV
Chroma subsampling : 4:2:0
Bit depth : 8 bits
Scan type : Progressive
Bits/(Pixel*Frame) : 0.200
Stream size : 1.20 GiB (87%)
Writing libra
[...]

»[Zobacz cały opis

==Torrent==
Kategoria: Filmy x264/h264 » Wojenny

Dodał: ropex
Data dodania:
2020-07-10 12:13:36
Rozmiar: 7.01 GB Seedów: 2
Peerów: 631

Pobrano: 62 razy

Komentarze: 0


...( Info )...

Produkcja: USA
Gatunek: Dramat, Wojenny
Premiera: 10 lipca 2020 (świat)
Reżyseria: Aaron Schneider
Scenariusz: Tom Hanks

...( Opis )...

W poruszającej historii, zainspirowanej prawdziwymi wydarzeniami, które miały miejsce podczas bitwy o Atlantyk, Tom Hanks wciela się w postać kapitana Ernesta Krause. Misja, na którą został wysłany, to jego pierwsze zadanie jako kapitana. Przez zdradzieckie wody Atlantyku, bez doświadczenia, przewodzi konwojowi alianckich statków z tysiącami żołnierzy na pokładach. Musi dotransportować żołnierzy na linie frontu II wojny światowej. Bez żadnego wsparcia powietrznego przez 5 długich dni kapitan i jego konwój muszą stawić czoła otaczającym ich nazistowskim U-botom.

...( Obsada )...

⭐ Tom Hanks Tom Hanks Tom Hanks Elisabeth Shue Elisabeth Shue Elisabeth Shue Stephen Graham Stephen Graham Stephen Graham Manuel Garcia-Rulfo Manuel Garcia-Rulfo Manuel Garcia-Rulfo Tom Brittney Tom Brittney Tom Brittney Karl Glusman Karl Glusma
[...]

»[Zobacz cały opis

==Torrent==
Kategoria: Filmy XviD/DivX » Komedia kryminalna

Dodał: patriota123
Data dodania:
2020-07-10 11:53:30
Rozmiar: 1.57 GB Seedów: 13
Peerów: 17

Pobrano: 7 razy

Komentarze: 0



Pobrałeś/aś podziękuj To nic nie kosztuje a Motywuje!!

...( Info )...

Produkcja: USA
Gatunek: Komedia kryminalna
Premiera: 19 maja 1987 (świat)
Reżyseria: Tony Scott
Scenariusz: Larry Ferguson, Warren Skaaren

https://www.filmweb.pl/film/Gliniarz+z+Beverly+Hills+II-1987-5850

...( Opis )...

W Beverly Hills grupa zamaskowanych bandytów napada na salon jubilerski. Łupem złodziei pada biżuteria ogromnej wartości. Śledztwo w tej sprawie prowadzi kapitan Andrew Bogomil wraz ze swoimi dwoma współpracownikami, jednak wkrótce wszyscy trzej zostają odsunięci od sprawy. Foley postanawia odłożyć prowadzone właśnie śledztwo w sprawie fałszerzy kart kredytowych i wyruszyć do Beverly Hills, aby dowiedzieć się o tym co się stało.

...( Obsada )...

★ Eddie Murphy .... Axel Foley
★ Judge Reinhold .... Billy Rosewood
★ John Ashton .... John Taggart
★ Jürgen Prochnow .... Maxwell Dent
★ Ronny Cox .... Andrew Bogomil
★ Brigitte Nielsen .... Karla Fry
★ Allen Garfield .... Har
[...]

»[Zobacz cały opis

==Torrent==
Kategoria: Filmy XviD/DivX » Wojenny

Dodał: Wilu75
Data dodania:
2020-07-10 11:52:48
Rozmiar: 700.15 MB Seedów: 366
Peerów: 675

Pobrano: 197 razy

Komentarze: 0


==================
...::: INFO :::...
==================
Tytuł: Misja Greyhound / Greyhound
Ocena: IMDB - 8.3/10 (43), Filmweb - 8.2/10 (6)
Produkcja: USA
Gatunek: Akcja, Dramat, Wojenny, Historyczny
Czas trwania: 91 min.
Premiera: 10 lipca 2020 (świat)
Reżyseria: Aaron Schneider
Scenariusz: Tom Hanks

==================
...::: OPIS :::...
==================
W poruszającej historii, zainspirowanej prawdziwymi wydarzeniami, które miały miejsce podczas bitwy o Atlantyk, Tom Hanks wciela się w postać kapitana Ernesta Krause. Misja, na którą został wysłany, to jego pierwsze zadanie jako kapitana. Przez zdradzieckie wody Atlantyku, bez doświadczenia, przewodzi konwojowi alianckich statków z tysiącami żołnierzy na pokładach. Musi dotransportować żołnierzy na linie frontu II wojny światowej. Bez żadnego wsparcia powietrznego przez 5 długich dni kapitan i jego konwój muszą stawić czoła otaczającym ich nazistowskim U-botom.

====================
...::: OBSADA :::...
========
[...]

»[Zobacz cały opis

==Torrent==
Kategoria: TV/Seriale » Dramat

Dodał: gregor32
Data dodania:
2020-07-10 11:48:27
Rozmiar: 448.01 MB Seedów: 11
Peerów: 0

Pobrano: 10 razy

Komentarze: 0


...( Info )...

Scenariusz: Michaela Coel
reżyseria: Sam Miller,Michaela Coel
gatunek: dramat
produkcja: USA / Wielka Brytania
premiera: 7 czerwca 2020.

...( Opis )...

Beztroska i pewna siebie dziewczyna z Londynu po napaści seksualnej musi odbudować każdy element swojego życia. Historia, która w centrum stawia pytanie o granicę, jaka dzieli bycie wyzwolonym od bycia wykorzystanym.

...( Obsada )...

Michaela Coel jako Arabella Essiedu
Weruche Opia jako Terry Pratchard
Paapa Essiedu jako Kwame

...( Dane Techniczne )...

Plik: s01e05.mp4

Hash: 79B6B4428175B519
Format: MPEG-4
Czas: 00:31:17.590
Rozmiar: 447 MiB (469047201)

Wideo (0):
Kodek: (AVC) AVC
Format: AVC
Rozmiar Obrazu: 1280x720
FrameRate: 23.976 (23976/1000) FPS
Aspect ratio: 16:9
BitRate: 1 676 kb/s

Audio (0):
Kodek: (AAC LC) AAC LC
Format: AAC
Kanały: 2 channels
BitRate: 317 kb/s

==Torrent==
Kategoria: TV/Seriale » Dramat

Dodał: gregor32
Data dodania:
2020-07-10 11:26:11
Rozmiar: 1.01 GB Seedów: 12
Peerów: 0

Pobrano: 6 razy

Komentarze: 0


...( Info )...

Reżyseria: Jonathan van Tulleken
Scenariusz: Josh Corbin
Gatunek: Dramat
Kraj produkcji: USA
Premiera: 6 grudnia 2019

...( Opis )...

To serial o twardej kobiecie, która po napadzie zostaje pozostawiona na pastwę losu, by umrzeć. Udało się jej przeżyć i teraz rozpoczyna ona zemstę przeciwko gangowi.

...( Obsada )...

Abigail Spencer , Rodrigo Santoro , Mena Massoud,
Pat Patterson, William Hutchings

...( Dane Techniczne )...

Plik: Reprisal.S01E09.mp4

Hash: 709FFE4A0C51DF61
Format: MPEG-4
Czas: 00:53:42.618
Rozmiar: 502 MiB (526256056)

Wideo (0):
Kodek: (AVC) AVC
Format: AVC
Rozmiar Obrazu: 960x400
FrameRate: 23.976 (23976/1000) FPS
Aspect ratio: 2.40:1
BitRate: 1 200 kb/s

Audio (0):
Kodek: (MPA1L3) MPEG-1 Audio layer 3
Format: MPEG Audio
Kanały: 2 channels
BitRate: 128 kb/s

==Torrent==
Kategoria: Muzyka » Jazz

Dodał: FallenAngel
Data dodania:
2020-07-10 11:24:34
Rozmiar: 229.30 MB Seedów: 0
Peerów: 0

Pobrano: 2 razy

Komentarze: 0


...SIŁA I PIĘKNO MUZYKI TKWIĄ W JEJ RÓŻNORODNOŚCI...



[Gdy obojętność jest przyzwoleniem, a przyzwolenie jest akceptacją, gdy akceptacja jest tłumaczeniem że sytuacja jest wyższa racją...]



...( Opis )...

Dziś uważany jest za jednego z najważniejszych muzyków ery be-bopu, czyli niesłychanie dla jazzu korzystnego przełomu lat czterdziestych i pięćdziesiątych ubiegłego wieku. Obok Charlie Parkera, Dizzy Gillespiego i Milesa Davisa jest wręcz jednym z ojców gatunku. Byłby najprawdopodobniej uważany za największego pianistę swojego pokolenia, gdyby nie miał pecha w postaci Theloniousa Monka, który zajął miejsce na szczycie zestawienia. Prawdopodobnie dlatego, że mimo iż był słabszym technicznie pianistą, pozostawił po sobie niezwykłe kompozycje. Bud Powell również komponował. Takie utwory jak „Bouncing With Bud”, „Budo”, czy „Tempus Fugit” były dla be-bopu ważne, jednak w porównaniu z katalogiem kompozycji Monka dorobek Buda Powella nie wypada jakoś szczególnie imponująco.

[...]

»[Zobacz cały opis

==Torrent==
Kategoria: Filmy XviD/DivX » Komedia kryminalna

Dodał: patriota123
Data dodania:
2020-07-10 11:16:17
Rozmiar: 1.88 GB Seedów: 14
Peerów: 21

Pobrano: 9 razy

Komentarze: 0


Pobrałeś/aś podziękuj To nic nie kosztuje a Motywuje!!

...( Info )...

Produkcja: USA
Gatunek: Komedia kryminalna
Premiera: 1 grudnia 1984 (świat)
Reżyseria: Martin Brest
Scenariusz: Daniel Petrie Jr.

https://www.filmweb.pl/film/Gliniarz+z+Beverly+Hills-1984-5849

...( Opis )...

Foley to przebiegły i błyskotliwy policjant z ulic Detroit, który bez skrupułów wkracza w luksusowy świat Beverly Hills, byle tylko dorwać mordercę. Przed jego sprytem, niekonwencjonalnymi metodami i zabójczym poczuciem humoru nie obroni się nawet międzynarodowa siatka przemytników narkotyków!

...( Obsada )...

★ Eddie Murphy .... Axel Foley
★ Judge Reinhold .... Detektyw Billy Rosewood
★ Lisa Eilbacher .... Jenny Summers
★ John Ashton .... Sierżant John Taggart
★ Ronny Cox .... Porucznik Andrew Bogomil
★ Steven Berkoff .... Victor Maitland
★ James Russo .... Mikey Tandino
★ Jonathan Banks .... Zack

...( Dane Techniczne )...

Format : AVI at 2 563 Kbps
Length : 1.88 GiB for 1
[...]

»[Zobacz cały opis

==Torrent==
Kategoria: Gry PC » Logiczne

Dodał: rin78
Data dodania:
2020-07-10 11:10:18
Rozmiar: 4.76 GB Seedów: 4
Peerów: 0

Pobrano: 2 razy

Komentarze: 0


...( Info )...

Wydanie: 21.06.2017
Gatunek: Logiczne
Wydawca: Ripstone
Tabletka: CODEX

...( Opis )...

Chess Ultra jest klasycznym symulatorem szachowym, w którym możemy konkurować z ludzkimi lub komputerowymi przeciwnikami. Akcję obserwujemy z perspektywy pierwszej osoby. Decydując się na zabawę z AI, gracze wybierają jeden z dziesięciu poziomów trudności, wpływających na liczbę ruchów, które może przewidzieć oponent, a także prawdopodobieństwo popełnienia przez niego błędu. Podstawowych zasad gry oraz zaawansowanych strategii uczy nas samouczek. Twórcy przygotowali także w sumie osiemdziesiąt wyzwań szachowych, które wymagają od nas np. wygrania partii w przeciągu siedmiu tur. Produkcja oferuje wiele trybów multiplayer. Poza lokalnymi rozgrywkami na wspólnym ekranie, bawić możemy się także w sieci. Chess Ultra pozwala na organizowanie własnych turniejów oraz wyszukiwanie graczy odpowiadających naszemu poziomowi umiejętności. Istnieje również możliwość rozgrywania partii ra
[...]

»[Zobacz cały opis

==Torrent==
Kategoria: Programy » Narzędziowe

Dodał: Porter78
Data dodania:
2020-07-10 11:06:46
Rozmiar: 26.77 MB Seedów: 98
Peerów: 44

Pobrano: 9 razy

Komentarze: 0


...( Opis )...
IObit Uninstaller to małe i praktyczne narzędzie do odinstalowywania z systemu zbędnych, nie używanych programów. W odróżnieniu od wbudowanego w Windowsie apletu charakteryzuje się dużo wyższą skutecznością działania, oferując przy tym zestaw dodatkowych funkcji przydatnych w zarządzaniu oprogramowaniem.

Program oferuje dwa tryby usuwania z systemu zbędnego oprogramowania. Pierwszy z nich, standardowy, podczas swojego działania wykorzystuje rozpowszechniany z programami domyślny instalator. Z kolei drugi, zaawansowany, przydaje się w sytuacjach kiedy oprogramowania nie da się usunąć w zwykły sposób lub kiedy praca standardowego deinstalatora zakończy się niepowodzeniem. Pozwala on tworzyć w systemie punkt przywracania, usunąć wskazane pozycje, a następnie przeskanować w poszukiwaniu pozostałości po nich zawartość rejestru Windows i dysku twardego. Dzięki IObit Uninstaller możemy odinstalowywać jedną lub wiele aplikacji jednocześnie.

W przypadku kiedy każdy z trybó
[...]

»[Zobacz cały opis

==Torrent==
Kategoria: Gry PC » Przygodowe

Dodał: rin78
Data dodania:
2020-07-10 11:05:12
Rozmiar: 1.59 GB Seedów: 4
Peerów: 0

Pobrano: 0 razy

Komentarze: 0


...( Info )...

Wydanie: 31 sierpnia 2017
Gatunek: Przygodowe, Elementy Logiczne
Producent: Ovosonico
Wydawca: 505 Games

...( Opis )...

Last Day of June to poruszająca gra przygodowa od studia Ovosonico. Gra przedstawia historię Carla i June. Pewnego dnia zakochani wybrali się na wycieczkę nad jezioro, jednak mieli wypadek samochodowy, w wyniku czego kobieta zmarła. Po tym nieszczęśliwym zdarzeniu mężczyzna odkrył jednak, że może przenosić się w czasie, używając obrazów namalowanych przez swoją wybrankę. Wykorzystując je, stara się za wszelką cenę zmienić bieg wydarzeń i uratować June, lecz jednocześnie musi ponosić konsekwencje dokonywanych wyborów.
Rozgrywka koncentruje się głównie na poznawaniu historii. Deweloperzy zatroszczyli się jednak, by gracz nie został oddelegowany tylko do roli obserwatora. Naszym zadaniem jest eksplorowanie poszczególnych lokacji i odnajdywanie miejsc, w których możemy coś zmienić. Czasami należy rozwiązać prostą łamigłówkę oraz dokonać wyboru
[...]

»[Zobacz cały opis

==Torrent==
Kategoria: Filmy XviD/DivX » Horror

Dodał: Wilu75
Data dodania:
2020-07-10 11:01:27
Rozmiar: 700.00 MB Seedów: 5
Peerów: 29

Pobrano: 128 razy

Komentarze: 0


==================
...::: INFO :::...
==================
Tytuł: The Orchard / Hunter's Moon / Nocne łowy
Produkcja: USA
Gatunek: Horror
Czas trwania: 81 min.
Premiera: 24.03.2020 - Świat
Reżyseria: Michael Caissie
Scenariusz: Michael Caissie

==================
...::: OPIS :::...
==================
Thomas Delany wraz z żoną i trójką dorastających córek niedawno wprowadzili się do zacisznej rezydencji na przedmieściach. Pojawienie się nowych lokatorów wzbudza zainteresowanie miejscowych, w tym grupki młodocianych przestępców, którzy wykorzystując nieobecność dorosłych włamują się do willi. Gdy udaje im się sterroryzować nastolatki, nieoczekiwanie na miejscu zjawia się zaalarmowany przez sąsiadów miejscowy szeryf. Zarówno on, jak i uwięzione w domu dziewczęta i ich oprawcy nie mają pojęcia, że otaczający rezydencję sad skrywa przerażającą tajemnicę, z którą za chwilę przyjdzie się im zmierzyć. Panująca właśnie pełnia to bowiem pora łowów czającego się w mroku wilkołaka...

[...]

»[Zobacz cały opis

==Torrent==
Kategoria: Erotyka » Gry

Dodał: rin78
Data dodania:
2020-07-10 10:57:48
Rozmiar: 766.46 MB Seedów: 4
Peerów: 0

Pobrano: 3 razy

Komentarze: 0


...( Info )...

Wydanie: *2008*
Gatunek: Hazardowe/Erotyczne
Wydawca: Dudаwеb

...( Opis )...

Zaawansowana symulacja najpopularniejszej odmiany tytułowego pokera, czyli Strip Poker Exclusive w wersji No Limit, w której można obstawiać bez żadnych ograniczeń.

...( Dane Techniczne )...

Procesor: Penitum 4 1800MHz
Pamiec RAM: 256MB;
HDD: 1GB wolnego miejsca na dysku twardym;
Karta graficzna: NVIDIA 9600GT
System operacyjny: Windows 7, 8/8.1, 10.

...( Instalacja )...

1. Pobierz.
2. Prawym przyciskiem myszy kliknij na "Glamour.Strip.Poker.Video.Edition-4.exe" i wybierz opcję "uruchom jako administrator".
3. Graj!

==Torrent==
Kategoria: Gry PC » Platformowe

Dodał: rin78
Data dodania:
2020-07-10 10:51:24
Rozmiar: 112.84 MB Seedów: 4
Peerów: 0

Pobrano: 2 razy

Komentarze: 0


...( Info )...

Wydanie: 16.08.2015 v1.3.3
Gatunek: Przygodowe/Platformer
Wydawca: RR16 Studio

...( Opis )...

Unofficial remake of the famous game 90's Chip 'n Dale Rescue Rangers on NES platform…  Chip 'n Dale Rescue Rangers is a platform game featuring single and 2-player cooperative modes, allowing players to choose which levels to access via a map of various locations throughout the city. Each individual stage is set up as a side-scrolling action game where Chip and Dale can walk, jump, duck, and pick up objects such as acorns, crates, barrels, and balls to throw at enemies and bosses. Each character can withstand only three direct hits before they lose a life, and there are no passwords.

While investigating a case of missing kitten, the team of chipmunk rangers finds out the kitten was just a trap set by their old enemy - an evil cat heading a criminal gang in the city. Now the rangers have to travel through various locations across the city to defeat the gangster a
[...]

»[Zobacz cały opis

==Torrent==
Kategoria: Książki » AudioBook

Dodał: aarek68
Data dodania:
2020-07-10 10:48:13
Rozmiar: 655.48 MB Seedów: 10
Peerów: 4

Pobrano: 36 razy

Komentarze: 0


...( Info )...

Autor: Leopold Tyrmand
Kategoria: literatura piękna
Data wydania: 2006-09-29
Rozmiar: 655 MB
Czas: 11h 55m 33s
Bitrate: 128 kbps
Format: mp3
Język; polski
Czyta: Jacek Brzostyński

...( Opis )...

Życie w komunizmie było piekłem, ale nie dla wszystkich. Było piekłem dla ludzi dobrej woli. Dla uczciwych. Dla rozsądnych. Dla chcących pracować z pożytkiem dla siebie i dla innych. Dla przedsiębiorczych. Dla tych, którzy chcieli coś zrobić lepiej, wydajniej, ładniej. Natomiast doskonale powodziło się w nim służalcom, oportunistom i konformistom.

Tyrmand uważał komunizm za najgorszą plagę jaka spotkała ludzkość, dlatego napisał tę książkę. 

==Torrent==
Kategoria: Filmy XviD/DivX » Przygodowy

Dodał: patriota123
Data dodania:
2020-07-10 10:37:09
Rozmiar: 3.49 GB Seedów: 3
Peerów: 24

Pobrano: 13 razy

Komentarze: 0



Pobrałeś/aś podziękuj To nic nie kosztuje a Motywuje!!

...( Info )...

Produkcja: USA
Gatunek: Przygodowy
Premiera: 23 maja 1984 (świat)
Reżyseria: Steven Spielberg
Scenariusz: Willard Huyck,Gloria Katz

https://www.filmweb.pl/film/Indiana+Jones+i+Świątynia+Zagłady-1984-1214

...( Opis )...

Rok 1935. Indiana Jones finalizuje transakcję z szefem chińskiego gangu. Zamiast otrzymania obiecanej zapłaty za wyświadczone usługi zostaje otruty. Udaje mu się jednak uratować dzięki Willie Scott. Uciekając przed ścigającą ich chińską mafią, przypadkowo trafiają do Indii, gdzie zostają zatrzymani w jednej z wiosek zagubionych w dżungli. Sędziwy szaman prowadzi ich do naczelnika. Ten obiecuje im transport do Delhi pod warunkiem, że wcześniej archeolog odnajdzie święty kamień skradziony przez wyznawców krwiożerczej bogini Kali.

...( Obsada )...

★ Harrison Ford .... Indiana Jones
★ Kate Capshaw .... Wilhelmina "Willie" Scott
★ Amrish Puri .... Mola Ram
★ Roshan Seth .... Ch
[...]

»[Zobacz cały opis

==Torrent==
Kategoria: Filmy x264/h264 » Akcja

Dodał: Wilu75
Data dodania:
2020-07-10 10:34:48
Rozmiar: 4.59 GB Seedów: 40
Peerów: 898

Pobrano: 124 razy

Komentarze: 0


==================
...::: INFO :::...
==================
Tytuł: The Old Guard
Ocena: IMDB - 8.5/10 (15)
Produkcja: USA
Gatunek: Akcja, Fantasy
Czas trwania: 125 min.
Premiera: 10 lipca 2020 (świat)
Reżyseria: Gina Prince-Bythewood
Scenariusz: Greg Rucka

==================
...::: OPIS :::...
==================
Pod dowództwem wojowniczki imieniem Andy (Charlize Theron), sekretna grupa najemników, których nic nie jest w stanie zabić, od stuleci chroni świat śmiertelników. Kiedy zespół podejmuje się nowej misji ratunkowej i ich nadzwyczajne zdolności zostają nagle ujawnione, Andy i Nile (Kiki Layne), świeżo upieczony żołnierz w szeregach grupy, muszą wyeliminować zagrożenie ze strony ludzi, którzy za wszelką cenę chcą zawładnąć ich mocą i zarobić na tym fortunę.

====================
...::: OBSADA :::...
====================
Charlize Theron .... Andromache ze Scytii / Andy
KiKi Layne .... Nile Freeman
Marwan Kenzari .... Yusuf Al-Kaysani / Joe
Matthias Schoenaerts
[...]

»[Zobacz cały opis

==Torrent==
Kategoria: Muzyka » Metal

Dodał: FallenAngel
Data dodania:
2020-07-10 10:34:19
Rozmiar: 435.36 MB Seedów: 0
Peerów: 0

Pobrano: 4 razy

Komentarze: 0


...SIŁA I PIĘKNO MUZYKI TKWIĄ W JEJ RÓŻNORODNOŚCI...



[Gdy obojętność jest przyzwoleniem, a przyzwolenie jest akceptacją, gdy akceptacja jest tłumaczeniem że sytuacja jest wyższa racją...]



...( Opis )...

Gdyby ktoś zaraz po premierze „Silence in the Snow” powiedział mi, że dwa lata później Trivium nagra jeden z najcięższych albumów, dorównujący brutalnością „Shogunowi” czy „In Waves”, to trudno byłoby mi w to uwierzyć. Gdyby ktoś powiedział mi, że Trivium wróci z przytupem; że „The Sin and the Sentence”, ósmy krążek w dorobku Amerykanów, przywróci mi nadszarpnięta wiarę we florydzki kwartet, to podszedłbym do tego stwierdzenia z dużym sceptycyzmem… Teraz, przesłuchawszy płytę kilkanaście razy, przekonałem się o tym na własnej skórze.
I uwierzyłem.

Na przełomie lipca i sierpnia, bez długiej akcji promocyjnej i zbędnego pompowania balonika, do sieci trafił pierwszy singiel – utwór tytułowy, zapowiadający nowe wydawnictwo. Odpaliłem go na telefonie, nawet nie fatygując
[...]

»[Zobacz cały opis

==Torrent==
Kategoria: Filmy XviD/DivX » Przygodowy

Dodał: patriota123
Data dodania:
2020-07-10 10:29:36
Rozmiar: 3.40 GB Seedów: 8
Peerów: 9

Pobrano: 10 razy

Komentarze: 0



Pobrałeś/aś podziękuj To nic nie kosztuje a Motywuje!!

...( Info )...

Produkcja: USA
Gatunek: Przygodowy
Premiera: 12 czerwca 1981 (świat)
Reżyseria: Steven Spielberg
Scenariusz: Lawrence Kasdan

https://www.filmweb.pl/Poszukiwacze.Zaginionej.Arki

...( Opis )...

Dr Indiana Jones (Harrison Ford) jest archeologiem, który łączy wykłady uniwersyteckie z ekspedycjami badawczymi. Właśnie powrócił z ostatniej, w trakcie której odniósł porażkę w rywalizacji z naukowcem pracującym dla nazistów. Nie dane jest mu zająć się nauczaniem. Otrzymuje bowiem tajne zadanie od służb specjalnych. Wyrusza do Egiptu, gdzie prawdopodobnie odkryto miejsce przechowywania Arki Przymierza. Nie może dopuścić, by święte trofeum znalazło się w rękach Niemców. Pomoże mu w tym jego dawna dziewczyna, Marion (Karen Allen).

...( Obsada )...

★ Harrison Ford .... Indiana Jones
★ Karen Allen .... Marion Ravenwood
★ Paul Freeman .... Dr René Émile Belloq
★ Ronald Lacey .... Major Arnold Ernst Toh
[...]

»[Zobacz cały opis

==Torrent==
Kategoria: Filmy x264/h264 » Akcja

Dodał: ropex
Data dodania:
2020-07-10 10:29:28
Rozmiar: 5.35 GB Seedów: 0
Peerów: 0

Pobrano: 9 razy

Komentarze: 0


...( Info )...

Produkcja: USA
Gatunek: Fantasy, Akcja
Premiera: 10 lipca 2020 (świat)
Reżyseria: Gina Prince-Bythewood
Scenariusz: Greg Rucka

...( Opis )...

Pod dowództwem wojowniczki imieniem Andy (Charlize Theron), sekretna grupa najemników, których nic nie jest w stanie zabić, od stuleci chroni świat śmiertelników. Kiedy zespół podejmuje się nowej misji ratunkowej i ich nadzwyczajne zdolności zostają nagle ujawnione, Andy i Nile (Kiki Layne), świeżo upieczony żołnierz w szeregach grupy, muszą wyeliminować zagrożenie ze strony ludzi, którzy za wszelką cenę chcą zawładnąć ich mocą i zarobić na tym fortunę.

...( Obsada )...

★ Charlize Theron .... Andromache ze Scytii / Andy
★ KiKi Layne .... Nile Freeman
★ Marwan Kenzari .... Yusuf Al-Kaysani / Joe
★ Matthias Schoenaerts .... Sebastian le Livre / Booker
★ Luca Marinelli .... Nicky
★ Chiwetel Ejiofor .... Copley
★ Harry Melling .... Merrick
★ Van Veronica Ngô .... Quynh

...( Dane Techniczne )...

Format: M
[...]

»[Zobacz cały opis

==Torrent==
Kategoria: Filmy XviD/DivX » Komedia

Dodał: tomasz62
Data dodania:
2020-07-10 10:27:12
Rozmiar: 701.36 MB Seedów: 280
Peerów: 263

Pobrano: 29 razy

Komentarze: 0


...( Info )...

Tytuł: M.A.S.H.
Reżyseria: Robert Altman
Scenariusz: Ring Lardner Jr.
Gatunek: Komedia, Dramat, Wojenny
Produkcja: USA
Premiera: 25 stycznia 1970 (świat)

...( Opis )...

Trwa wojna w Korei. Do jednego ze szpitali polowych zostają sprowadzeni dwaj nowi chirurdzy kapitan Benjamin Franklin "Sokole Oko" Pierce oraz kapitan Augustus Bedford Forrest (odpowiednio Donald Sutherland i Tom Skerritt). W toku ciężkiej pracy potrafią jednak również nieźle się zabawić, korzystając z każdej możliwości. Personel szpitala nie jest obojętny na ich działania. Lwia część akceptuje i wspiera działania lekarzy, stając w opozycji do "nawiedzonego" majora Franka Burnsa i przełożonej pielęgniarek major Margaret "Gorące Wargi" O'Houlihan (Sally Kellerman). Bohaterowie potrafią jednak pozbyć się bądź uciszyć przeciwników...

...( Obsada )...

Donald Sutherland jako kapitan Benjamin Franklin ‘Hawkeye’ Pierce
Elliott Gould jako kapitan John Francis Xavier ‘Traper’ McIntyre
To
[...]

»[Zobacz cały opis

==Torrent==
Kategoria: Filmy XviD/DivX » Komedia

Dodał: bartek8712
Data dodania:
2020-07-10 10:19:23
Rozmiar: 701.36 MB Seedów: 12
Peerów: 20

Pobrano: 8 razy

Komentarze: 0


...( Info )...

Tytuł: M.A.S.H.
Reżyseria: Robert Altman
Scenariusz: Ring Lardner Jr.
Gatunek: Komedia, Dramat, Wojenny
Produkcja: USA
Premiera: 25 stycznia 1970 (świat)

...( Opis )...

Trwa wojna w Korei. Do jednego ze szpitali polowych zostają sprowadzeni dwaj nowi chirurdzy kapitan Benjamin Franklin "Sokole Oko" Pierce oraz kapitan Augustus Bedford Forrest (odpowiednio Donald Sutherland i Tom Skerritt). W toku ciężkiej pracy potrafią jednak również nieźle się zabawić, korzystając z każdej możliwości. Personel szpitala nie jest obojętny na ich działania. Lwia część akceptuje i wspiera działania lekarzy, stając w opozycji do "nawiedzonego" majora Franka Burnsa i przełożonej pielęgniarek major Margaret "Gorące Wargi" O'Houlihan (Sally Kellerman). Bohaterowie potrafią jednak pozbyć się bądź uciszyć przeciwników...

...( Obsada )...

Donald Sutherland jako kapitan Benjamin Franklin ‘Hawkeye’ Pierce
Elliott Gould jako kapitan John Francis Xavier ‘Traper’ McIntyre
Tom Ske
[...]

»[Zobacz cały opis

==Torrent==
Kategoria: Muzyka » Hip-Hop

Dodał: Beatrix
Data dodania:
2020-07-10 10:18:30
Rozmiar: 81.34 MB Seedów: 119
Peerów: 6

Pobrano: 4 razy

Komentarze: 0


...( Info )...

Artist : G-Eazy
Album : Everything's Strange Here (Explicit)
Year: 2020
Genre: Hip-Hop/Rap, R&B
Quality: Mp3 320 kbps

...( TrackList )...

1. Everybody's Gotta Learn Sometime (02:57)
2. Free Porn Cheap Drugs (03:20)
3. Back To What You Knew (03:25)
4. All The Things You're Searching For (feat. Kossisko & Ashley Benson) (03:57)
5. Stan By Me (03:37)
6. In The Middle (02:58)
7. Nostalgia Cycle (02:44)
8. Every Night Of The Year (05:11)
9. Lazarus (03:37)
10. Had Enough (03:13)

==Torrent==
Kategoria: Filmy XviD/DivX » Akcja

Dodał: topp2p
Data dodania:
2020-07-10 10:14:36
Rozmiar: 3.44 GB Seedów: 93
Peerów: 75

Pobrano: 19 razy

Komentarze: 0


...( Info )...

Produkcja: Korea Południowa
Gatunek: Akcja
Premiera: 18 stycznia 2017 (świat)
Reżyseria: Seong-hoon Kim
Scenariusz: Sung-hoon Kim

...( Opis )...

Wywodząca się ze struktur siłowych Korei Północnej grupa przestępcza przenika na teren Korei Południowej. Tamtejszy detektyw podejmuje śledztwo ręka w rękę ze swoim odpowiednikiem przysłanym do Seulu z oficjalnie wrogiej, komunistycznej Północy.

...( Obsada )...

★ Hyun Bin .... Cheol-ryeong Im
★ Hae-jin Yoo .... Jin-tae Kang
★ Ju-hyuk Kim .... Gi-seong Cha
★ Yeong-Nam Jang .... So-yeon Park
★ Hae-yeong Lee .... Szef Pyo
★ Dong-hwi Lee .... Myeong-ho Park
★ Jeong-hwan Kong .... Seong Kang
★ Gene-woo Park .... Chil-bok Jang

...( Dane Techniczne )...

Format : AVI at 3 969 kb/s
Length : 3.44 GiB for 2 h 4 min 14 s 30 ms

Video #0 : MPEG-4 Visual at 3 575 kb/s
Aspect : 1280 x 536 (2.388) at 24.000 fps

Audio #0 : AC3 at 384 kb/s
Infos : 2 channels, 48.0 kHz

==Torrent==
Kategoria: Muzyka » Heavy Metal

Dodał: FallenAngel
Data dodania:
2020-07-10 10:12:53
Rozmiar: 435.97 MB Seedów: 0
Peerów: 0

Pobrano: 6 razy

Komentarze: 0


...SIŁA I PIĘKNO MUZYKI TKWIĄ W JEJ RÓŻNORODNOŚCI...



[Gdy obojętność jest przyzwoleniem, a przyzwolenie jest akceptacją, gdy akceptacja jest tłumaczeniem że sytuacja jest wyższa racją...]



...( Opis )...

Running Wild to legenda niemieckiego i światowego heavy metalu. Mimo iż zespół założony przez gitarzystę i wokalistę Rolfa Kasparka swoje najlepsze lata ma już za sobą, tak jednak może poszczycić się bogatym dorobkiem fonograficznym, rzeszą oddanych fanów i niebagatelnym wpływem na muzykę metalową. Kapitan Rock ’n’ Rolf sprawnie prowadził przez wiele lat swój okręt o wdzięcznej nazwie Running Wild, serwując miłośnikom heavy metalu niezapomniane albumy i hymny.

I chociaż statek ten od wielu lat pływa z różnymi rezultatami, to nie można odmówić ekipie Kasparka należnego miejsca w historii heavy metalu. Running Wild odpowiedzialny jest też za stworzenie jednego z podgatunków muzyki metalowej. Jakiego? Pirate Metal! Wydając w 1987 r. swój trzeci album „Under Jolly Roger”
[...]

»[Zobacz cały opis

==Torrent==
Kategoria: Erotyka » Filmy

Dodał: bartek8712
Data dodania:
2020-07-10 09:59:05
Rozmiar: 1.05 GB Seedów: 0
Peerów: 39

Pobrano: 30 razy

Komentarze: 0


ALIEN BEZ OPISU

==Torrent==
Kategoria: Erotyka » Filmy

Dodał: bartek8712
Data dodania:
2020-07-10 09:57:02
Rozmiar: 2.14 GB Seedów: 3
Peerów: 20

Pobrano: 23 razy

Komentarze: 0


ALIEN BEZ OPISU

==Torrent==
Kategoria: Filmy XviD/DivX » Horror

Dodał: bartek8712
Data dodania:
2020-07-10 09:54:24
Rozmiar: 264.06 MB Seedów: 13
Peerów: 12

Pobrano: 9 razy

Komentarze: 0



...( Info )...

Produkcja: USA
Gatunek: Horror, Komedia
Premiera: 11 Lipca 2006
Reżyseria: Chris Watson
Scenariusz: Chris Watson

...( Opis )...

Szatan stworzył nową rasę ludzi wyglądających jak zombie, których zadaniem jest opanowanie całego świata. Szansa na jego ocalenie staje przed dwoma skorumpowanymi policjantami - Jeffem i Cagem, którzy oprócz walki z zombie, muszą poradzić sobie jeszcze z wydziałem spraw wewnętrznych. Zerobudżetowy horror od Tromy w jakości video...

...( Obsada )...

Mark Adams ... Det. Mark Argento
Ari Bavel ... Cage
Uwe Boll ... Self
Lloyd Kaufman ... Janitor
Conrad Brooks ... Dean Martinson
Jeff Dylan Graham ... Harper
Jennifer Greer ... Mandy
Susan Guntly ... Ashley
Tom Savini ... Jesus

...( Dane Techniczne )...

Format : AVI
Length : 263 MB for 1 h 20 min 56 s

Video #0 : H264 - MPEG-4 AVC (part 10) (avc1)
Aspect : 640 x 432 at 30.000 fps

Audio #0 : MPEG AAC Audio (mp4a)
Infos : 2 channels, 48.0 kHz at 121 kb/s

Nap
[...]

»[Zobacz cały opis

==Torrent==
Kategoria: Filmy XviD/DivX » Akcja

Dodał: bartek8712
Data dodania:
2020-07-10 09:50:55
Rozmiar: 1.56 GB Seedów: 72
Peerów: 115

Pobrano: 62 razy

Komentarze: 0



...( Info )...

Tytuł: Ip Man 4 / Yip Man 4 / Ip Man 4: The Finale
Ocena: IMDB - 7.1/10 (17982), Filmweb - 7.1/10 (1623)
Produkcja: Hongkong
Gatunek: Akcja, Biograficzny, Dramat, Sztuki walki
Czas trwania: 105 min.
Premiera: 20.12.2019 - Świat
Reżyseria: Wilson Yip
Scenariusz: Edmond Wong, Hiroshi Fukazawa, Lai-Yin Leung



https://www.filmweb.pl/film/Yip+Man+4-2019-793820
https://www.imdb.com/title/tt2076298/

...( Obsada )...

Yip Man wyjeżdża do Stanów Zjednoczonych, gdzie jego uczeń Bruce Lee popadł w konflikt z lokalną społecznością sztuk walki, otwierając własną szkołę Wing Chun.

...( Obsada )...

★ Donnie Yen .... Ip Man
★ Scott Adkins .... Barton Geddes
★ Kwok-kwan Chan .... Bruce Lee
★ Vanness Wu .... Hartman
★ Liu .... Ming
★ David Johnson Wood .... Marine Sargeant
★ Grace Englert .... Becky
★ Adrian Wheeler .... Pan Wight

...( Dane Techniczne )...

Ip.Man.4.The.Finale.2019.PL.720p.BDRip.XviD.AC3-MAXX

Format : AVI at 2.125 Kb/s
Length
[...]

»[Zobacz cały opis

==Torrent==
Kategoria: Filmy XviD/DivX » Kryminalny

Dodał: topp2p
Data dodania:
2020-07-10 09:49:55
Rozmiar: 2.47 GB Seedów: 82
Peerów: 79

Pobrano: 20 razy

Komentarze: 0


...( Info )...

Produkcja: Kanada, Niemcy, USA
Gatunek: Dramat, Kryminał
Premiera: 20 stycznia 2003 (świat)
Reżyseria: James Foley
Scenariusz: Doug Jung

...( Opis )...

Niezwykle inteligentny oszust Jake Vig właśnie okantował na tysiące dolarów Lionela Dolby. Zrobił to z pomocą swojej paczki: Gordo, Shillsa Milesa, Big Ala oraz dwóch skorumpowanych policjantów z LAPD Lloyda Whitwortha i Omara Manzano. Kiedy okazuje się, że Lionel i Big Al nie żyją staje się jasne, że paczka tak naprawdę nie okantowała Lionela. On był tylko płotką. Grubą rybą jest ekscentryczny boss świata przestępczego Winston King, u którego Lionel był księgowym. Jake nigdy nie stroni od wyzwań, więc oferuje że spłaci Kinga. Chce dokonać największego oszustwa w życiu. Cel? Morgan Gillette, bankier z dużymi powiązaniami ze zorganizowaną przestępczością. Jake po przeanalizowaniu sytuacji decyduje, żeby do grupy dołączyła obcesowa blond złodziejka kieszonkowa Lily (Rachel Weisz). Kiedy Lily przyjeżdża na robot
[...]

»[Zobacz cały opis

==Torrent==
Kategoria: Filmy x264/h264 » Przygodowy

Dodał: Jordan83
Data dodania:
2020-07-10 09:48:14
Rozmiar: 4.71 GB Seedów: 8559
Peerów: 8620

Pobrano: 37 razy

Komentarze: 1


...( Info )...

Produkcja: USA
Gatunek: Przygodowy, Akcja
Twórca: Gina Prince-Bythewood
Platforma: Netflix
Premiera: 10 lipca 2020

...( Opis )...

Czwórka odwiecznych obrońców ludzkości, których śmierć się nie ima, odkrywa nową nieśmiertelną i mierzy się z przeciwnikiem zainteresowanym ich mocami.

...( Obsada )...

Charlize Theron .... Andy - Andromache of Scythia
KiKi Layne .... Nile Freeman
Matthias Schoenaerts .... Booker - Sebastian Le Livre
Marwan Kenzari .... Joe - Yusuf Al-Kaysani
Luca Marinelli .... Nicky - Nicolo di Genova
Chiwetel Ejiofor .... Copley
Harry Melling .... Merrick
Veronica Ngo .... Quynh

...( Dane Techniczne )...

Napisy wmuksowane należy wybrać w odtwarzaczu

Release.........: The.Old.Guard.2020.1080p.WEB.H264-SECRECY
Date............: 07/10/2020
Duration........: 2 h 05 min 36 s
Video bitrate...: 4640 kbps
Resolution......: 1920 x 1080
Framerate.......: 24.000
Audio codec.....: E-AC-3
Audio bitrate...: 768 kbps
Language....
[...]

»[Zobacz cały opis

==Torrent==
Kategoria: Muzyka » Hip-Hop

Dodał: Beatrix
Data dodania:
2020-07-10 09:47:11
Rozmiar: 130.45 MB Seedów: 84
Peerów: 0

Pobrano: 1 razy

Komentarze: 0


...( Info )...

Artist : Quavo
Album : Trust Me
Year: 2020
Genre: Hip-Hop/Rap
Quality: Mp3 320 kbps

...( TrackList )...

1.Practice Makes Perfect
2.Whole Time
3.Ship It
4.Time Fly
5.Night (feat. Desiigner)
6.Ride Out The Storm
7.Rerun (feat. Travis Scott)
8.Smell Of Money (feat. Travis Scott)
9.Kangeroo
10.Last Night (feat. Jeremih)
11.Drop On Me
12.Money Showers (feat. Chance The Rapper & Lil Yachty)
13.Blunts After Sex
14.More (Remix) (feat. PARTYNEXTDOOR & Lil Wayne)
15.Walk It Talk It (feat. Drake) (OG)
16.Water (feat. Quavo) [Bonus Track]
17.Last Night (feat. Gucci Mane, Jason Derulo & Quavo) [Bonus Track]
18.Aim For The Moon (feat. Quavo) [Bonus Track]

==Torrent==
Kategoria: Muzyka » Hip-Hop

Dodał: Beatrix
Data dodania:
2020-07-10 09:35:47
Rozmiar: 65.69 MB Seedów: 15
Peerów: 4

Pobrano: 1 razy

Komentarze: 0


...( Info )...

Artist : Riff Raff
Album : Vanilla Gorilla
Year: 2020
Genre: Hip-Hop/Rap
Quality: Mp3 320 kbps

...( TrackList )...

1. Black Maybach
2. Hop out the Lamb
3. Water Whippin Wizard
4. Big Dog Shit
5. Of Course
6. Find Love
7. Bending Blocks
8. Ice on My Hand
9. Land on Top

==Torrent==
Kategoria: TV/Seriale » Wojenny

Dodał: dawcio0322
Data dodania:
2020-07-10 09:28:38
Rozmiar: 944.66 MB Seedów: 64
Peerów: 0

Pobrano: 4 razy

Komentarze: 0



...( Info )...

Produkcja: Kanada
Gatunek: Wojenny, Dramat
Twórcy: Stephanie Morgenstern, Mark Ellis
Czas trwania: 2x 43 min
Sezon 03 Epizod 06-07

Odcinki:
"Supply and Demand"
"The Hunt"

...( Opis )...

W szóstym odcinku Aurora usiłuje się ukryć jako Helene Bauer, gdy naziści polują na szpiegów wśród polskiego ruchu oporu. Dwóch nowych rekrutów z Obozu X dołącza do zespołu w niebezpiecznej misji, która przybliża ich do sedna operacji Marigold.

Natomiast w siódmym Aurora odkrywa plan ataku na polską wioskę Nadzieja. Bojownicy Ruchu Oporu dołączają do Neila i Alfreda w zaciętej bitwie.

...( Obsada )...

★ Evelyne Brochu .... Aurora Luft
★ Jack Laskey .... Alfred Graves
★ Warren Brown .... Neil Mackay
★ Connor Price .... Harry James
★ Hugh Dillon .... Duncan Sinclair
★ Torben Liebrecht .... Franz Faber

...( Dane Techniczne )...

Format      : MPEG-4 at 1.217 kb/s
Length      : 381 MiB for 43 min 45s 67 ms

Video #0     : AVC at 1.050
[...]

»[Zobacz cały opis

==Torrent==
Kategoria: TV/Seriale » Komedia

Dodał: tomasz62
Data dodania:
2020-07-10 09:12:17
Rozmiar: 13.50 GB Seedów: 0
Peerów: 0

Pobrano: 27 razy

Komentarze: 0


...( Info )...

Tytuł: M*A*S*H
Sezon: 07 - 09
Epizod: 148 - 218
Gatunek: Komedia, Dramat. Wojenny
Produkcja: USA
Stacja telewizyjna: CBS
Premiera: S07 - 18 września 1978 , S08 - 17 września 1979 , S09 - 17 września 1980
Format obrazu: [4:3]

...( Opis )...

Przez wielu uważany za najlepszą komedię wszech czasów, M*A*S*H* opowiada historię nietypowego amerykańskiego szpitala polowego podczas wojny w Korei. By przetrwać koszmar wojny lekarze robili co w ich mocy, chcąc oderwać myśli od brutalnej rzeczywistości.
M*A*S*H* to niezapomniana komedia z fantastycznymi skeczami i rewelacyjnymi postaciami, o których mówi się do dziś. [opis dystrybutora dvd]

...( Obsada )...

Alan Alda jako kapitan Benjamin Franklin „Hawkeye” Pierce
Mike Farrell jako kapitan B.J. Hunnicutt
Loretta Swit jako major Margaret „Hot Lips” Houlihan
Larry Linville jako major Frank Burns
David Ogden Stiers jako major Charles Emerson Winchester III
Harry Morgan jako pułkownik Sherman T. Potter
Gary
[...]

»[Zobacz cały opis

==Torrent==
Kategoria: Filmy x264/h264 » Wojenny

Dodał: Jordan83
Data dodania:
2020-07-10 09:11:36
Rozmiar: 6.93 GB Seedów: 9049
Peerów: 9890

Pobrano: 91 razy

Komentarze: 0


...( Info )...

Produkcja: USA
Gatunek: Wojenny
Twórca: Aaron Schneider
Platforma: Apple TV +
Premiera: 10 lipca 2020

...( Opis )...

We wczesnym okresie II wojny światowej kapitan Ernest Krause (Tom Hanks) dowodzi amerykańskim niszczycielem, który zabezpiecza konwój 37 alianckich statków. Okręty wojenne są zagrożone przez wilcze stada nazistowskich U-botów.

...( Obsada )...

Tom Hanks .... kapitan Ernest Krause, dowódca USS Keeling
Stephen Graham .... Charlie Cole, zastępca Krausa
Rob Morgan .... Cleveland, szef kuchni
Elisabeth Shue .... Evelyn, zainteresowanie Ernesta
Manuel Garcia-Rulfo .... Lopez
Karl Glusman .... Eppstein
Tom Brittney .... Lieutenant Watson
Joseph Poliquin .... Forbrick

...( Dane Techniczne )...

Napisy wmuksowane należy wybrać w odtwarzaczu

Release.........: Greyhound.2020.1080p.WEB.H264-SECRECY
Date............: 07/10/2020
Duration........: 1 h 31 min 42 s
Video bitrate...: 10038 kbps
Resolution......: 1920 x 802
Framerate...
[...]

»[Zobacz cały opis

==Torrent==
Kategoria: TV/Seriale » Dokumentalny

Dodał: Jordan83
Data dodania:
2020-07-10 09:11:06
Rozmiar: 1.56 GB Seedów: 18
Peerów: 32

Pobrano: 11 razy

Komentarze: 0


...( Info )...

Produkcja: USA
Gatunek: Dokumentalny
Platforma: Apple TV+
Premiera: 10 lipiec 2020

...( Opis )...

Niezliczone historie największych sportowców na świecie, w których każdy odcinek analizuje kluczowy moment, który określa karierę sportowca.

...( Dane Techniczne )...

Napisy wmuksowane należy wybrać w odtwarzaczu

Video
ID : 1
Format : AVC
Format/Info : Advanced Video Codec
Format profile : High@L3.1
Format settings : CABAC / 5 Ref Frames
Format settings, CABAC : Yes
Format settings, Reference frames : 5 frames
Codec ID : V_MPEG4/ISO/AVC
Duration : 7 min 43 s
Bit rate : 3 902 kb/s
Width : 1 280 pixels
Height : 720 pixels
Display aspect ratio : 16:9
Frame rate mode : Constant
Frame rate : 23.976 (24000/1001) FPS
Color space : YUV
Chroma subsampling : 4:2:0
Bit depth : 8 bits
Scan type : Progressive
Bits/(Pixel*Frame) : 0.177
Stream size : 216 MiB (83%)
Language : English
Default : Yes
Forced : No
Color range : Limited
Color primar
[...]

»[Zobacz cały opis

==Torrent==
Kategoria: Muzyka » Pop

Dodał: Beatrix
Data dodania:
2020-07-10 09:03:35
Rozmiar: 155.55 MB Seedów: 1573
Peerów: 358

Pobrano: 17 razy

Komentarze: 0


...( Info )...

Artist: Shaggy
Album: Hot Shot
Year: 2020
Genre: Pop, Singer/Songwriter
Quality: Mp3 320 kbps

...( TrackList )...

01 – Hot Shot (Hot Shot 2020)
02 – It Wasn’t Me (Hot Shot 2020) (feat. Rayvon)
03 – Luv Me Luv Me (Hot Shot 2020) (feat. Amber Lee)
04 – Angel (Hot Shot 2020) (feat. Sting)
05 – Keep’n It Real (Hot Shot 2020)
06 – Primavera (Hot Shot 2020) (feat. Sting)
07 – Buk-In-Hamm Palace (Hot Shot 2020)
08 – Oh Carolina (Hot Shot 2020)
09 – Electric Avenue (Hot Shot 2020)
10 – Caribbean Plans (Hot Shot 2020) (feat. Rani)
11 – Boombastic (Hot Shot 2020)
12 – Strength of A Woman (Hot Shot 2020)
13 – Under the Sea (Hot Shot 2020)
14 – Hey Sexy Lady (Hot Shot 2020)
15 – Electric Avenue (Hot Shot 2020) (Dave Audé Remix) (feat. Dave Audé)
16 – Under the Sea (Hot Shot 2020) (Dave Audé Remix) (feat. Dave Audé)
17 – It Wasn’t Me (Hot Shot 2020) (Dave Audé Remix) (feat. Rayvon & Dave Audé)
18 – Algoritmo (Cherry Cherry Boom Boom Version) (feat. Will
[...]

»[Zobacz cały opis

==Torrent==
Kategoria: Muzyka » Pop

Dodał: Beatrix
Data dodania:
2020-07-10 08:46:57
Rozmiar: 120.29 MB Seedów: 457
Peerów: 99

Pobrano: 2 razy

Komentarze: 0


...( Info )...

Artists: Rufus Wainwright
Album: Unfollow the Rules
Year: 2020
Genre: Pop, Singer/Songwriter
Quality: Mp3 320 kbps

...( TrackList )...

01. Trouble In Paradise (3:06)
02. Damsel In Distress (4:42)
03. Unfollow The Rules (6:45)
04. You Ain't Big (2:35)
05. Romantical Man (5:27)
06. Peaceful Afternoon (4:16)
07. Only the People That Love (4:35)
08. This One's For The Ladies (THAT LUNGE!) (4:04)
09. My Little You (1:52)
10. Early Morning Madness (5:38)
11. Devils And Angels (Hatred) (4:17)
12. Alone Time (4:18)

==Torrent==
Kategoria: TV/Seriale » Kryminalny

Dodał: viola62
Data dodania:
2020-07-10 08:29:15
Rozmiar: 8.72 GB Seedów: 46
Peerów: 94

Pobrano: 16 razy

Komentarze: 0


...( Info )...

twórca
Dennis Spooner
gatunek
Kryminał, Akcja
produkcja
Wielka Brytania

...( Opis )...

Jeff Randall i Marty Hopkirk - to para detektywów specjalizujących się w sprawach rozwodowych. Stworzona przez nich spółka ma się całkiem dobrze dopóki Hopkirk nie traci życia w tajemniczych okolicznościach. Jako duch, wykorzystując jeszcze ostatnie chwile na ziemi (ma czas do świtu) nawiedza Randalla chcąc mu pomóc w złapaniu swojego mordercy. Zabiera mu to jednak tyle czasu, że przyjeżdża na cmentarz dopiero o poranku - tym samym rzuca na siebie klątwę - musi jeszcze przez sto lat przebywać na ziemi pod postacią ducha. Nie jest to jednak takie złe, gdyż może w ten sposób pomóc Randallowi rozwikłać wiele bardzo tajemniczych zagadek. Ten popularny serial składa się w sumie z 26 odcinków.

...( Obsada )...

Mike Pratt ... Jeff Randall
Kenneth Cope ... Marty Hopkirk
Annette Andre ... Jeannie Hopkirk
Ivor Dean ... Inspektor Large 

...( Dane Techniczne )...

Form
[...]

»[Zobacz cały opis

==Torrent==
Kategoria: Filmy Blu-Ray/HD » Komedia

Dodał: Xsonar
Data dodania:
2020-07-10 07:58:40
Rozmiar: 5.51 GB Seedów: 6
Peerów: 0

Pobrano: 7 razy

Komentarze: 0


..::INFO::..

Produkcja: Włochy
Gatunek: Komedia rom.
Premiera: 1 lipca 2020 (świat)
Reżyseria: Younuts
Scenariusz: Younuts

..::OPIS::..

Podczas wakacji na zatłoczonych plażach Riccione grupa nastolatków zaprzyjaźnia się i rzuca w momentami niebezpieczny wir romansów i związków.

..::OBSADA::..

Isabella Ferrari .... Irene
Lorenzo Zurzolo .... Vincenzo
Ludovica Martino .... Camilla
Cristiano Caccamo .... Ciro
Luca Ward .... Lucio
Saul Nanni .... Marco
Davide Calgaro .... Furio
Claudia Tranchese .... Emma

..::DANE-TECH::..

Format : Matroska at 7 726 kb/s
Length : 5.51 GiB for 1 h 42 min 2 s 528 ms

Video #0 : AVC at 7 150 kb/s
Aspect : 1920 x 1080 (1.778) at 24.000 fps

Audio #0 : AC3+ at 640 kb/s
Infos : 6 channels, 48.0 kHz

==Torrent==
Kategoria: Filmy Blu-Ray/HD » Horror

Dodał: Xsonar
Data dodania:
2020-07-10 07:49:40
Rozmiar: 3.22 GB Seedów: 35
Peerów: 34

Pobrano: 11 razy

Komentarze: 0


..::INFO::..

Produkcja: USA, Wielka Brytania
Gatunek: Horror
Premiera: 9 września 2016 (świat)
Reżyseria: André Øvredal
Scenariusz: Ian Goldberg, Richard Naing

..::OPIS::..

Na odludziu znaleziono ciało pięknej dziewczyny. Wszystko wskazuje na to, że ofiara nie zmarła śmiercią naturalną. Dwaj patolodzy sądowi – ojciec i syn – muszą w ciągu jednej nocy ustalić przyczynę zgonu. To najlepsi specjaliści w mieście, pokładający bezgraniczną wiarę w siłę ludzkiego rozumu. Pracują metodycznie i spokojnie, odrzucając tropy, których nie da się wyjaśnić naukowo. Wkrótce jednak zmuszeni będą zweryfikować wszystkie swoje przekonania. Gdy zaczną pojmować sens prawdy, na której trop wpadli, będzie już za późno na odwrót. A nic z czym się dotąd zetknęli nie przygotowało ich na konfrontację z tak niepojętym koszmarem.

..::OBSADA::..

Emile Hirsch .... Austin Tilden
Brian Cox .... Tommy Tilden
Ophelia Lovibond .... Emma
Michael McElhatton .... Szeryf Sheldon
Olwen Catherine Kelly .
[...]

»[Zobacz cały opis

Przeglądaj
1 - 60 | 61 - 120 | 121 - 180 | ... | 175201 - 175260 | 175261 - 175320 | 175321 - 175322
<< Poprzednia      Następna >>